Problem downloading files | Elder font | The donate system has been temporarily disabled...

Скачать через торрент Легенды завтрашнего дня DCs Legends of Tomorrow Фильм бесплатно в хорошем качестве torrent

Скачивайте на UnionPeer.org фильмы через торрент без регистрации. Новинки кино в хорошем качестве через торрент. На UnionPeer.org можно скачать через торрент фильмы 2014 и 2015 годов. Самые новые фильмы.

Скачать торрент Легенды завтрашнего дня DCs Legends of Tomorrow бесплатно через .torrent фильм мультфильм сериал

Если у вас наблюдаются проблемы со скриншотами, переходом по ссылками, скачиванием торрентов - проблемы в блокировщике рекламы AdBlock. #хорошегоДня!


Статистика раздачи
Размер:  7.05 GB   |    Зарегистрирован:  9 дней   |    .torrent скачан:  11 раз   |   
Раздают:  1  
   
Загрузка...
 
Автор Сообщение

Galfimbul

avatar Galfimbul


Легенды завтрашнего дня | DC's Legends of Tomorrow
Год выпуска: 2017
Страна: США | USA
Жанр: фантастика, боевик, драма, криминал
Продолжительность: ~00:45:00Перевод: Профессиональный (многоголосый закадровый) | LostFilm
Субтитры: естьРежиссер: Дермотт Даунс, Глен Винтер, Джо ДантеВ ролях: Виктор Гарбер, Брэндон Рут, Кейти Лотц, Артур Дарвилл, Сиара Рене, Франц Драмех, Доминик Пёрселл, Вентворт Миллер, Каспер Крамп, Фальк Хеншел и дрОписание: Увидев будущее, которого обязательно нужно избежать, Рип Хантер, путешественник во времени, собирает команду из героев и злодеев, чтобы противостоять смертельной угрозе. На кону стоит не только наша планета, но и все время в целом. Сможет ли эта команда победить бессмертное зло, абсолютно непохожее на то, что они видели раньше?IMDB: 7.0/10 (62,547 votes)
КиноПоиск: 6.1/10 (5,795 голосов)РЕЛИЗ от sergiy_pspДобавлено озвучивание от LostFilm. Начало сезона!
Всем приятного просмотра! Работа со звуком: sergiy_psp. Нет Рекламы!
Источник: AMZN-WEBRip
Качество видео: WEBRip 720p
Формат: MKV
Кодек: H.264 @ AC3
Видео: 1280x720 at 23.976 fps, MPEG-4 AVC, ~3950 kbps avg, 0.121 bit/pixel
Аудио Rus: 48 kHz, AC3, 2/0 (L,R) ch, ~384.00 kbps avg |Многоголосый закадровый, LostFilm|
Аудио Eng: 48 kHz, AC3, 3/2 (L,C,R,l,r) + LFE ch, ~384.00 kbps avg
Субтитры: English
✘Семпл✘
01. - 10.10.2017 - Аруба-Кон / Aruba-Con
02. - 17.10.2017 - Уродцы / Freakshow
03. - 24.10.2017 - Зари / Zari
04. - 31.10.2017 - Звонок домой / Phone Home
05. - 07.11.2017 - Возвращение мачо / Return of the Mack
06. - 14.11.2017 - Хелен Хант / Helen Hunt
07. - 21.11.2017 - Эпизод #3.07 / Episode #3.07
08. - 28.11.2017 - Эпизод #3.08 / Episode #3.08
09. - 05.12.2017 - Эпизод #3.09 / Episode #3.09
10. - 12.12.2017 - Эпизод #3.10 / Episode #3.10
11. - 19.12.2017 - Эпизод #3.11 / Episode #3.11
12. - 26.12.2017 - Эпизод #3.12 / Episode #3.12
13. - 02.01.2018 - Эпизод #3.13 / Episode #3.13
14. - 09.01.2018 - Эпизод #3.14 / Episode #3.14
Общее
Уникальный идентификатор                 : 204106224795466941166525517293387832770 (0x998D6DD40DE84F65AEE7219312ACDDC2)
Полное имя                               : Legends.of.Tomorrow.S03.720p.AMZN.WEBRip.Rus.Eng.sergiy_psp\Legends.of.Tomorrow.S03E01.720p.AMZN.WEBRip.Rus.Eng.sergiy_psp.mkv
Формат                                   : Matroska
Версия формата                           : Version 4 / Version 2
Размер файла                             : 1,36 Гбайт
Продолжительность                        : 42 м. 22 с.
Режим общего битрейта                    : Переменный
Общий поток                              : 4602 Кбит/сек
Дата кодирования                         : UTC 2017-11-14 17:53:15
Программа кодирования                    : mkvmerge v17.0.0 ('Be Ur Friend') 64-bit
Библиотека кодирования                   : libebml v1.3.5 + libmatroska v1.4.8

Видео
Идентификатор                            : 1
Формат                                   : AVC
Формат/Информация                        : Advanced Video Codec
Профиль формата                          : [email protected]
Настройки формата                        : CABAC / 5 Ref Frames
Параметр CABAC формата                   : Да
Параметр RefFrames формата               : 5 кадров
Идентификатор кодека                     : V_MPEG4/ISO/AVC
Продолжительность                        : 42 м. 22 с.
Вид битрейта                             : Переменный
Битрейт                                  : 3831 Кбит/сек
Максимальный битрейт                     : 4500 Кбит/сек
Ширина                                   : 1280 пикселей
Высота                                   : 720 пикселей
Соотношение сторон                       : 16:9
Режим частоты кадров                     : Постоянный
Частота кадров                           : 23,976 (24000/1001) кадра/сек
Цветовое пространство                    : YUV
Субдискретизация насыщенности            : 4:2:0
Битовая глубина                          : 8 бит
Тип развёртки                            : Прогрессивная
Бит/(Пиксели*Кадры)                      : 0.173
Размер потока                            : 1,13 Гбайт (83%)
Заголовок                                : Legends.of.Tomorrow.S03E01.720p.AMZN.WEBRip.Rus.Eng.sergiy_psp
Язык                                     : English
Default                                  : Да
Forced                                   : Нет
Цветовой диапазон                        : Limited
Основные цвета                           : BT.709
Характеристики трансфера                 : BT.709
Коэффициенты матрицы                     : BT.709

Аудио #1
Идентификатор                            : 2
Формат                                   : AC-3
Формат/Информация                        : Audio Coding 3
Параметр Endianness формата              : Big
Идентификатор кодека                     : A_AC3
Продолжительность                        : 42 м. 22 с.
Вид битрейта                             : Постоянный
Битрейт                                  : 384 Кбит/сек
Каналы                                   : 2 канала
Расположение каналов                     : Front: L R
Частота                                  : 48,0 КГц
Частота кадров                           : 31,250 кадров/сек (1536 SPF)
Битовая глубина                          : 16 бит
Метод сжатия                             : С потерями
Размер потока                            : 116 Мбайт (8%)
Заголовок                                : Lostfilm 2.0
Язык                                     : Russian
ServiceKind/String                       : Complete Main
Default                                  : Да
Forced                                   : Нет

Аудио #2
Идентификатор                            : 3
Формат                                   : AC-3
Формат/Информация                        : Audio Coding 3
Параметр Endianness формата              : Big
Идентификатор кодека                     : A_AC3
Продолжительность                        : 42 м. 22 с.
Вид битрейта                             : Постоянный
Битрейт                                  : 384 Кбит/сек
Каналы                                   : 6 каналов
Расположение каналов                     : Front: L C R, Side: L R, LFE
Частота                                  : 48,0 КГц
Частота кадров                           : 31,250 кадров/сек (1536 SPF)
Битовая глубина                          : 16 бит
Метод сжатия                             : С потерями
Размер потока                            : 116 Мбайт (8%)
Заголовок                                : Original 5.1
Язык                                     : English
ServiceKind/String                       : Complete Main
Default                                  : Нет
Forced                                   : Нет

Текст
Идентификатор                            : 4
Формат                                   : UTF-8
Идентификатор кодека                     : S_TEXT/UTF8
Идентификатор кодека/Информация          : UTF-8 Plain Text
Продолжительность                        : 41 м. 50 с.
Битрейт                                  : 96 бит/сек
ElementCount                             : 1092
Размер потока                            : 29,5 Кбайт (0%)
Заголовок                                : eng sub (full)
Язык                                     : English
Default                                  : Нет
Forced                                   : Нет
[b]✘Внимание✘
Внимание! Раздача ведётся путём добавления новых серий; при каждом добавлении создётся новый торрент. Чтобы начать докачку новой серии, пользователям необходимо сделать следующее:
(1) остановить скачивание,
(2) удалить старый торрент у себя из клиента (старые серии удалять не надо),
(3) скачать новый торрент и запустить его у себя в клиенте вместо старого, при этом указать клиенту путь в старую папку куда и должно происходить скачивание новых серий.Ваш клиент при этом должен произвести хеширование (проверку) старой папки (если не производит сам - помогите ему сделать это), и будет докачивать только те серии которых у вас ещё нет. Старые серии при этом не удаляются, а продолжают раздаваться!Eсли вы уже удалили старые серии, то предотвратить повторную закачку старых серий можно, отжав галочку в соответсвующих местах при запуске нового торрента.


Трекер:  [ 15-Ноя-2017 00:24 ]

  

Скачать .torrent

Размер .torrent файла 18 KB


Размер: 7.05 GB
Хэш (hash) релиза: 3d3514a26f24782d143f4e7e1f54d55403696624
Подписка на обновления:

Еще никто не оставлял запись к записи скачать торрент Легенды завтрашнего дня DCs Legends of Tomorrow . Будь первым!

!Обратная связь