Top of the Lake S02E01 | Norman (BluRay | WEB-DL) | Still The King S02E06

Скачать через торрент Флэш The Flash Фильм бесплатно в хорошем качестве torrent

Скачивайте на UnionPeer.org фильмы через торрент без регистрации. Новинки кино в хорошем качестве через торрент. На UnionPeer.org можно скачать через торрент фильмы 2014 и 2015 годов. Самые новые фильмы.

Скачать торрент Флэш The Flash бесплатно через .torrent фильм мультфильм сериал

Если у вас наблюдаются проблемы со скриншотами, переходом по ссылками, скачиванием торрентов - проблемы в блокировщике рекламы AdBlock. #хорошегоДня!


Статистика раздачи
Размер:  5.54 GB   |    Зарегистрирован:  9 дней   |    .torrent скачан:  14 раз   |   
Раздают:  1  
   
Загрузка...
 
Автор Сообщение

Galfimbul

avatar Galfimbul


Флэш / The Flash
Год выпуска: 2017
Страна: США | USA
Жанр: фантастика, боевик, драма, криминал
Продолжительность: ~00:45:00Перевод: Профессиональный (многоголосый закадровый) | LostFilm
Субтитры: естьРежиссер: Дэвид Наттер / David NutterВ ролях: Грант Гастин, Кэндис Паттон, Рик Коснетт, Даниэль Панабэйкер, Карлос Вальдес, Томас Кэвэна, Джесси Л. Мартин, Джон Уэсли Шипп, Стивен Амелл, Ёсиэ Бэнкрофт и другие.Описание: Когда Барри Аллен был маленьким, больше всего на свете ему хотелось быть супергероем — тем, кто превосходит лимиты человеческого организма и использует во благо данную ему силу. Когда Барри было одиннадцать лет, он на собственном опыте узнал, что люди с необычными способностями действительно существуют: его мать была убита одним из таких людей. Повзрослев и став судмедэкспертом, Барри не отбросил мыслей о сверхлюдях и продолжал искать доказательства их существования, что не лучшим образом сказывалось на его репутации и общении с коллегами. Впрочем, однажды его усилия были вознаграждены…IMDB: 8.0/10 (233,447 votes)
КиноПоиск: 7.6/10 (28,475 голосов)РЕЛИЗ от sergiy_pspДобавлено озвучивание от LostFilm. Начало сезона!
Всем приятного просмотра! Работа со звуком: sergiy_psp. Нет Рекламы!
Источник: AMZN-WEBRip
Качество видео: WEBRip 720p
Формат: MKV
Кодек: H.264 @ AC3
Видео: 1280x720 at 23.976 fps, MPEG-4 AVC, ~3500 kbps avg, 0.121 bit/pixel
Аудио Rus: 48 kHz, AC3, 2/0 (L,R) ch, ~384.00 kbps avg |Многоголосый закадровый, LostFilm|
Аудио Eng: 48 kHz, AC3, 3/2 (L,C,R,l,r) + LFE ch, ~384.00 kbps avg
Субтитры: English
✘Семпл✘
01. - 10.10.2017 - Перерождение Флэшаn / The Flash Rebor
02. - 17.10.2017 - Неясные сигналы / Mixed Signals
03. - 24.10.2017 - Госпожа Удача / Luck Be a Lady
04. - 31.10.2017 - Долгое путешествие в ночь / Elongated Journey Into Night
05. - 07.11.2017 - Девичник / Girls Night Out
06. - 14.11.2017 - When Harry Met Harry… / When Harry Met Harry…
07. - 21.11.2017 - Эпизод #4.07 / Episode #4.07
08. - 28.11.2017 - Эпизод #4.08 / Episode #4.08
09. - 05.12.2017 - Эпизод #4.09 / Episode #4.09
10. - 12.12.2017 - Эпизод #4.10 / Episode #4.10
11. - 19.12.2017 - Эпизод #4.11 / Episode #4.11
12. - 26.12.2017 - Эпизод #4.12 / Episode #4.12
13. - 02.01.2018 - Эпизод #4.13 / Episode #4.13
14. - 09.01.2018 - Эпизод #4.14 / Episode #4.14
Общее
Уникальный идентификатор                 : 181090991344398536987256828624933275225 (0x883CDB35BFBE9D4E95FA0E2058D8C659)
Полное имя                               : The.Flash.S04.720p.AMZN.WEBRip.Rus.Eng.sergiy_psp\The.Flash.S04E01.720p.AMZN.WEBRip.Rus.Eng.sergiy_psp.mkv
Формат                                   : Matroska
Версия формата                           : Version 4 / Version 2
Размер файла                             : 1,16 Гбайт
Продолжительность                        : 42 м. 21 с.
Режим общего битрейта                    : Переменный
Общий поток                              : 3937 Кбит/сек
Дата кодирования                         : UTC 2017-11-14 00:08:54
Программа кодирования                    : mkvmerge v17.0.0 ('Be Ur Friend') 64-bit
Библиотека кодирования                   : libebml v1.3.5 + libmatroska v1.4.8

Видео
Идентификатор                            : 1
Формат                                   : AVC
Формат/Информация                        : Advanced Video Codec
Профиль формата                          : [email protected]
Настройки формата                        : CABAC / 5 Ref Frames
Параметр CABAC формата                   : Да
Параметр RefFrames формата               : 5 кадров
Идентификатор кодека                     : V_MPEG4/ISO/AVC
Продолжительность                        : 42 м. 21 с.
Вид битрейта                             : Переменный
Битрейт                                  : 3367 Кбит/сек
Максимальный битрейт                     : 4500 Кбит/сек
Ширина                                   : 1280 пикселей
Высота                                   : 720 пикселей
Соотношение сторон                       : 16:9
Режим частоты кадров                     : Постоянный
Частота кадров                           : 23,976 (24000/1001) кадра/сек
Цветовое пространство                    : YUV
Субдискретизация насыщенности            : 4:2:0
Битовая глубина                          : 8 бит
Тип развёртки                            : Прогрессивная
Бит/(Пиксели*Кадры)                      : 0.143
Размер потока                            : 960 Мбайт (80%)
Заголовок                                : The.Flash.S04E01.720p.AMZN.WEBRip.Rus.Eng.sergiy_psp
Язык                                     : English
Default                                  : Да
Forced                                   : Нет
Цветовой диапазон                        : Limited
Основные цвета                           : BT.709
Характеристики трансфера                 : BT.709
Коэффициенты матрицы                     : BT.709

Аудио #1
Идентификатор                            : 2
Формат                                   : AC-3
Формат/Информация                        : Audio Coding 3
Параметр Endianness формата              : Big
Идентификатор кодека                     : A_AC3
Продолжительность                        : 42 м. 21 с.
Вид битрейта                             : Постоянный
Битрейт                                  : 384 Кбит/сек
Каналы                                   : 2 канала
Расположение каналов                     : Front: L R
Частота                                  : 48,0 КГц
Частота кадров                           : 31,250 кадров/сек (1536 SPF)
Битовая глубина                          : 16 бит
Метод сжатия                             : С потерями
Размер потока                            : 116 Мбайт (10%)
Заголовок                                : Lostfilm 2.0
Язык                                     : Russian
ServiceKind/String                       : Complete Main
Default                                  : Да
Forced                                   : Нет

Аудио #2
Идентификатор                            : 3
Формат                                   : AC-3
Формат/Информация                        : Audio Coding 3
Параметр Endianness формата              : Big
Идентификатор кодека                     : A_AC3
Продолжительность                        : 42 м. 21 с.
Вид битрейта                             : Постоянный
Битрейт                                  : 384 Кбит/сек
Каналы                                   : 6 каналов
Расположение каналов                     : Front: L C R, Side: L R, LFE
Частота                                  : 48,0 КГц
Частота кадров                           : 31,250 кадров/сек (1536 SPF)
Битовая глубина                          : 16 бит
Метод сжатия                             : С потерями
Размер потока                            : 116 Мбайт (10%)
Заголовок                                : Original 5.1
Язык                                     : English
ServiceKind/String                       : Complete Main
Default                                  : Нет
Forced                                   : Нет

Текст
Идентификатор                            : 4
Формат                                   : UTF-8
Идентификатор кодека                     : S_TEXT/UTF8
Идентификатор кодека/Информация          : UTF-8 Plain Text
Продолжительность                        : 42 м. 15 с.
Битрейт                                  : 83 бит/сек
ElementCount                             : 987
Размер потока                            : 25,7 Кбайт (0%)
Заголовок                                : eng sub (full)
Язык                                     : English
Default                                  : Нет
Forced                                   : Нет
[b]✘Внимание✘
Внимание! Раздача ведётся путём добавления новых серий; при каждом добавлении создётся новый торрент. Чтобы начать докачку новой серии, пользователям необходимо сделать следующее:
(1) остановить скачивание,
(2) удалить старый торрент у себя из клиента (старые серии удалять не надо),
(3) скачать новый торрент и запустить его у себя в клиенте вместо старого, при этом указать клиенту путь в старую папку куда и должно происходить скачивание новых серий.Ваш клиент при этом должен произвести хеширование (проверку) старой папки (если не производит сам - помогите ему сделать это), и будет докачивать только те серии которых у вас ещё нет. Старые серии при этом не удаляются, а продолжают раздаваться!Eсли вы уже удалили старые серии, то предотвратить повторную закачку старых серий можно, отжав галочку в соответсвующих местах при запуске нового торрента.


Трекер:  [ 14-Ноя-2017 23:54 ]

  

Скачать .torrent

Размер .torrent файла 15 KB


Размер: 5.54 GB
Хэш (hash) релиза: 67c5ea93ae603739cbc5ca7e167682c4f4b39bdb
Подписка на обновления:

Еще никто не оставлял запись к записи скачать торрент Флэш The Flash . Будь первым!

!Обратная связь