Patrick Dempsey | Sara Ramirez | Sandra Oh

Скачать через торрент Стрела Arrow Фильм бесплатно в хорошем качестве torrent

Скачивайте на UnionPeer.org фильмы через торрент без регистрации. Новинки кино в хорошем качестве через торрент. На UnionPeer.org можно скачать через торрент фильмы 2014 и 2015 годов. Самые новые фильмы.

Скачать торрент Стрела Arrow бесплатно через .torrent фильм мультфильм сериал

Если у вас наблюдаются проблемы со скриншотами, переходом по ссылками, скачиванием торрентов - проблемы в блокировщике рекламы AdBlock. #хорошегоДня!


Статистика раздачи
Размер:  5.99 GB   |    Зарегистрирован:  9 дней   |    .torrent скачан:  14 раз   |   
Раздают:  1  
   
Загрузка...
 
Автор Сообщение

Galfimbul

avatar Galfimbul


Стрела / Arrow
Год выпуска: 2017
Страна: США | USA
Жанр: фантастика, боевик, драма, криминал
Продолжительность: ~00:45:00Перевод: Профессиональный (многоголосый закадровый) | LostFilm
Субтитры: естьРежиссер: Джон Беринг, Гай Норман Би, Глен ВинтерВ ролях: Стивен Амелл, Кэти Кэссиди, Колин Доннелл, Дэвид Рэмси, Уилла Холланд, Сюзанна Томпсон, Пол Блекторн, Эмили Бетт Рикардс, Ману Беннетт, Колтон Хэйнс и другие.Описание: После кораблекрушения плейбой миллиардер Оливер Куин пропадает и считается погибшим в течение пяти лет, после чего его обнаруживают живым на затерянном острове в Тихом океане. Когда он возвращается домой в Старлинг-Сити, его преданная мать Мойра, столь любимая сестра Теа и лучший друг Томми приветствуют его дома, но они видят, что Оливер изменился после испытаний на острове. Хотя Оливер скрывает правду о человеке, которым он стал…IMDB: 7.8/10 (345,548 votes)
КиноПоиск: 7.5/10 (37,595 голосов)РЕЛИЗ от sergiy_pspДобавлено озвучивание от LostFilm. Начало сезона!
Всем приятного просмотра! Работа со звуком: sergiy_psp. Нет Рекламы!
Источник: AMZN-WEBRip
Качество видео: WEBRip 720p
Формат: MKV
Кодек: H.264 @ AC3
Видео: 1280x720 at 23.976 fps, MPEG-4 AVC, ~3500 kbps avg, 0.121 bit/pixel
Аудио Rus: 48 kHz, AC3, 2/0 (L,R) ch, ~384.00 kbps avg |Многоголосый закадровый, LostFilm|
Аудио Eng: 48 kHz, AC3, 3/2 (L,C,R,l,r) + LFE ch, ~384.00 kbps avg
Субтитры: English
✘Семпл✘
01. - 12.10.2017 - Пепел / Fallout
02. - 19.10.2017 - Дань / Tribute
03. - 26.10.2017 - Ближайший родственник / Next of Kin
04. - 02.11.2017 - Обмен / Reversal
05. - 09.11.2017 - Дэфстроук возвращается / Deathstroke Returns
06. - 16.11.2017 - Promises Kept / Promises Kept
07. - 23.11.2017 - Эпизод #6.07 / Episode #6.07
08. - 30.11.2017 - Эпизод #6.08 / Episode #6.08
09. - 07.12.2017 - Эпизод #6.09 / Episode #6.09
10. - 14.12.2017 - Эпизод #6.10 / Episode #6.10
11. - 21.12.2017 - Эпизод #6.11 / Episode #6.11
12. - 28.12.2017 - Эпизод #6.12 / Episode #6.12
13. - 04.01.2018 - Эпизод #6.13 / Episode #6.13
14. - 11.01.2018 - Эпизод #6.14 / Episode #6.14
Общее
Уникальный идентификатор                 : 237165950551472409265559699561353229247 (0xB26C802708C004E99B32E0A5C38AB3BF)
Полное имя                               : Arrow.S06.720p.AMZN.WEBRip.Rus.Eng.sergiy_psp\Arrow.S06E01.720p.AMZN.WEBRip.Rus.Eng.sergiy_psp.mkv
Формат                                   : Matroska
Версия формата                           : Version 4 / Version 2
Размер файла                             : 1,27 Гбайт
Продолжительность                        : 42 м. 23 с.
Режим общего битрейта                    : Переменный
Общий поток                              : 4286 Кбит/сек
Дата кодирования                         : UTC 2017-11-14 00:52:35
Программа кодирования                    : mkvmerge v17.0.0 ('Be Ur Friend') 64-bit
Библиотека кодирования                   : libebml v1.3.5 + libmatroska v1.4.8

Видео
Идентификатор                            : 1
Формат                                   : AVC
Формат/Информация                        : Advanced Video Codec
Профиль формата                          : [email protected]
Настройки формата                        : CABAC / 5 Ref Frames
Параметр CABAC формата                   : Да
Параметр RefFrames формата               : 5 кадров
Идентификатор кодека                     : V_MPEG4/ISO/AVC
Продолжительность                        : 42 м. 23 с.
Вид битрейта                             : Переменный
Битрейт                                  : 3516 Кбит/сек
Максимальный битрейт                     : 4500 Кбит/сек
Ширина                                   : 1280 пикселей
Высота                                   : 720 пикселей
Соотношение сторон                       : 16:9
Режим частоты кадров                     : Постоянный
Частота кадров                           : 23,976 (24000/1001) кадра/сек
Цветовое пространство                    : YUV
Субдискретизация насыщенности            : 4:2:0
Битовая глубина                          : 8 бит
Тип развёртки                            : Прогрессивная
Бит/(Пиксели*Кадры)                      : 0.159
Размер потока                            : 1,04 Гбайт (82%)
Заголовок                                : Arrow.S06E01.720p.AMZN.WEBRip.Rus.Eng.sergiy_psp
Язык                                     : English
Default                                  : Да
Forced                                   : Нет
Цветовой диапазон                        : Limited
Основные цвета                           : BT.709
Характеристики трансфера                 : BT.709
Коэффициенты матрицы                     : BT.709

Аудио #1
Идентификатор                            : 2
Формат                                   : AC-3
Формат/Информация                        : Audio Coding 3
Параметр Endianness формата              : Big
Идентификатор кодека                     : A_AC3
Продолжительность                        : 42 м. 23 с.
Вид битрейта                             : Постоянный
Битрейт                                  : 384 Кбит/сек
Каналы                                   : 2 канала
Расположение каналов                     : Front: L R
Частота                                  : 48,0 КГц
Частота кадров                           : 31,250 кадров/сек (1536 SPF)
Битовая глубина                          : 16 бит
Метод сжатия                             : С потерями
Размер потока                            : 116 Мбайт (9%)
Заголовок                                : Lostfilm 2.0
Язык                                     : Russian
ServiceKind/String                       : Complete Main
Default                                  : Да
Forced                                   : Нет

Аудио #2
Идентификатор                            : 3
Формат                                   : AC-3
Формат/Информация                        : Audio Coding 3
Параметр Endianness формата              : Big
Идентификатор кодека                     : A_AC3
Продолжительность                        : 42 м. 23 с.
Вид битрейта                             : Постоянный
Битрейт                                  : 384 Кбит/сек
Каналы                                   : 6 каналов
Расположение каналов                     : Front: L C R, Side: L R, LFE
Частота                                  : 48,0 КГц
Частота кадров                           : 31,250 кадров/сек (1536 SPF)
Битовая глубина                          : 16 бит
Метод сжатия                             : С потерями
Размер потока                            : 116 Мбайт (9%)
Заголовок                                : Original 5.1
Язык                                     : English
ServiceKind/String                       : Complete Main
Default                                  : Нет
Forced                                   : Нет

Текст
Идентификатор                            : 4
Формат                                   : UTF-8
Идентификатор кодека                     : S_TEXT/UTF8
Идентификатор кодека/Информация          : UTF-8 Plain Text
Продолжительность                        : 41 м. 50 с.
Битрейт                                  : 80 бит/сек
ElementCount                             : 825
Размер потока                            : 24,6 Кбайт (0%)
Заголовок                                : eng sub (full)
Язык                                     : English
Default                                  : Нет
Forced                                   : Нет
[b]✘Внимание✘
Внимание! Раздача ведётся путём добавления новых серий; при каждом добавлении создётся новый торрент. Чтобы начать докачку новой серии, пользователям необходимо сделать следующее:
(1) остановить скачивание,
(2) удалить старый торрент у себя из клиента (старые серии удалять не надо),
(3) скачать новый торрент и запустить его у себя в клиенте вместо старого, при этом указать клиенту путь в старую папку куда и должно происходить скачивание новых серий.Ваш клиент при этом должен произвести хеширование (проверку) старой папки (если не производит сам - помогите ему сделать это), и будет докачивать только те серии которых у вас ещё нет. Старые серии при этом не удаляются, а продолжают раздаваться!Eсли вы уже удалили старые серии, то предотвратить повторную закачку старых серий можно, отжав галочку в соответсвующих местах при запуске нового торрента.


Трекер:  [ 14-Ноя-2017 23:24 ]

  

Скачать .torrent

Размер .torrent файла 16 KB


Размер: 5.99 GB
Хэш (hash) релиза: 6795607d598ea18914fa2581941e78ce0600d47f
Подписка на обновления:

Торренты, похожие на Стрела Arrow скачать торрент

Форум Название Автор Размер S L Добавлен
Зарубежные сериалы ·· Стрела / Arrow / Сезон: 5 / Серии: 1-6 из 23 (Джон Беринг, Гай Норман Би, Глен Винтер) [2016, США, фантастика, боевик, драма, криминал, WEB-DL 720p] MVO (BaibaKo) + Original Galfimbul 92370090488.6 GB 1 3 1479299968

15:39

16-Ноя-16

Зарубежные сериалы ·· Стрела / Arrow / Сезон: 5 / Серии: 1-6 из 23 (Джон Беринг, Гай Норман Би, Глен Винтер) [2016, США, фантастика, боевик, драма, криминал, WEB-DLRip] MVO (BaibaKo) + Original Galfimbul 31492280322.93 GB 1 3 1479297009

14:50

16-Ноя-16

Зарубежные сериалы ·· Стрела / Arrow / Сезон: 5 / Серии: 1-6 из 23 (Джон Беринг, Гай Норман Би, Глен Винтер) [2016, США, фантастика, боевик, драма, криминал, HDTVRip] MVO (Jaskier) + Original Galfimbul 31497768962.93 GB 1 3 1479129587

16:19

14-Ноя-16

Зарубежные сериалы ·· Стрела / Arrow / Сезон: 5 / Серии: 1-6 из 23 (Джон Беринг, Гай Норман Би, Глен Винтер) [2016, США, фантастика, боевик, драма, криминал, HDTVRip 720p] MVO (Jaskier) + Original Galfimbul 59892121515.58 GB 1 3 1479082212

03:10

14-Ноя-16

Зарубежные сериалы ·· Стрела / Arrow / Сезон: 5 / Серии: 1-6 из 23 (Джон Беринг, Гай Норман Би, Ник Копус) [2016, США, Фантастика, боевик, драма, криминал, приключения, WEBRip] MVO (LostFilm) + Original Galfimbul 52775854084.92 GB 0 0 1479030816

12:53

13-Ноя-16

Зарубежные сериалы ·· Стрела / Arrow / Сезон: 5 / Серии: 1-6 из 23 (Джон Беринг, Гай Норман Би, Глен Винтер) [2016, США, фантастика, боевик, драма, криминал, WEB-DLRip] MVO (LostFilm) + Original Galfimbul 31492239362.93 GB 1 3 1478899579

00:26

12-Ноя-16

Еще никто не оставлял запись к записи скачать торрент Стрела Arrow . Будь первым!

!Обратная связь