Thriller | Documentary | Cartoons

Скачать через торрент Хакер Hacker Фильм бесплатно в хорошем качестве torrent

Скачивайте на UnionPeer.org фильмы через торрент без регистрации. Новинки кино в хорошем качестве через торрент. На UnionPeer.org можно скачать через торрент фильмы 2014 и 2015 годов. Самые новые фильмы.

Скачать торрент Хакер Hacker бесплатно через .torrent фильм мультфильм сериал

Если у вас наблюдаются проблемы со скриншотами, переходом по ссылками, скачиванием торрентов - проблемы в блокировщике рекламы AdBlock. #хорошегоДня!


Статистика раздачи
Размер:  1.46 GB   |    Зарегистрирован:  9 дней   |    .torrent скачан:  73 раза   |   
Раздают:  2  
   
Загрузка...
 
Автор Сообщение

Galfimbul

avatar Galfimbul


Хакер / Hacker«Real Story. Real Hacker»
Страна: США, Таиланд, Гонконг, Канада
Жанр: триллер, драма, криминал
Год выпуска: 2016
Продолжительность: 01:48:41Перевод: Любительский (многоголосый закадровый) Синема УС
Субтитры: нет
Оригинальная аудиодорожка: нетРежиссер: Акан Сатаев / Akan SatayevВ ролях: Каллэн МакОлифф, Лоррэйн Николсон, Дэниэл Эрик Голд, Клифтон Коллинз мл., Захари Беннетт, Влада Веревко, Геннадий ДолгановОписание: Главный герой истории, основанной на реальных событиях, подросток Алекс Данилюк, увлечённый изучением компьютерного программирования. Когда семья Алекса начинает испытывать финансовые трудности, он погружается в жизнь онлайн-преступлений и хищений идентификационных данных банковской системы. Ступив на криминальный путь, Алекс встречает опытного жулика Сая и молодого хакера Киру, совместно с которыми достигает успеха в порождении хаоса финансового рынка... Качество видео: HDRip / Hacker.2016.BDRip.1080p.Rus.Eng
Формат видео: AVIВидео: XviD build 67, 720x304 (2.35:1), 24.000 fps, ~1738 kbps avg, 0.331 bit/pixel
Аудио: 48 kHz, AC3 Dolby Digital, 2/0 (L,R) ch, ~192 kbps avg
Complete name : D:\Раздачи\Хакер (2016) HDRip_ivanes20031987.aviFormat : AVIFormat/Info : Audio Video InterleaveFile size : 1.46 GiBDuration : 1 h 47 minOverall bit rate : 1 939 kb/sWriting application : VirtualDubMod 1.5.10.3 (build 2550/release)Writing library : VirtualDubMod build 2550/release

VideoID : 0Format : MPEG-4 VisualFormat profile : Advanced [email protected] settings, BVOP : 1Format settings, QPel : NoFormat settings, GMC : No warppointsFormat settings, Matrix : CustomCodec ID : XVIDCodec ID/Hint : XviDDuration : 1 h 47 minBit rate : 1 738 kb/sWidth : 720 pixelsHeight : 304 pixelsDisplay aspect ratio : 2.35:1Frame rate : 24.000 FPSColor space : YUVChroma subsampling : 4:2:0Bit depth : 8 bitsScan type : ProgressiveCompression mode : LossyBits/(Pixel*Frame) : 0.331Stream size : 1.31 GiB (90%)Writing library : XviD 67

AudioID : 1Format : AC-3Format/Info : Audio Coding 3Format settings, Endianness : BigCodec ID : 2000Duration : 1 h 47 minBit rate mode : ConstantBit rate : 192 kb/sChannel(s) : 2 channelsChannel positions : Front: L RSampling rate : 48.0 kHzFrame rate : 31.250 FPS (1536 SPF)Bit depth : 16 bitsCompression mode : LossyStream size : 148 MiB (10%)Alignment : Split accross interleavesInterleave, duration : 42 ms (1.00 video frame)Interleave, preload duratio : 500 msService kind : Complete Main


Трекер:  [ 14-Ноя-2017 19:01 ]

  

Скачать .torrent

Размер .torrent файла 15 KB


Размер: 1.46 GB
Хэш (hash) релиза: 6c443564d892584117405b41688bd047cd7787d1
Подписка на обновления:

Торренты, похожие на Хакер Hacker скачать торрент

Форум Название Автор Размер S L Добавлен
Зарубежные фильмы 2016-2017 (Новинки зарубежного кино) ·· Хакер / Hacker (Акан Сатаев) [2016 г., Триллер, драма, криминал, BDRip 1080p] MVO [Синема УС] | Без рекламы Galfimbul 96648405409 GB 0 0 1510744184

14:09

15-Ноя-17

Зарубежные фильмы 2016-2017 (Новинки зарубежного кино) ·· Хакер / Hacker (Акан Сатаев) [2016 г., Триллер, драма, криминал, HDRip] MVO [Синема УС] | Без рекламы Galfimbul 15648686081.46 GB 3 0 1510744181

14:09

15-Ноя-17

Зарубежные фильмы 2016-2017 (Новинки зарубежного кино) ·· Хакер / Hacker (Акан Сатаев / Akan Satayev) [2016, США, Таиланд, Гонконг, Канада, триллер, драма, криминал, HDRip] MVO Galfimbul 784128000748 MB 0 0 1510675275

19:01

14-Ноя-17

Зарубежные фильмы 2016-2017 (Новинки зарубежного кино) ·· Хакер / Hacker (Акан Сатаев) [2016, триллер, драма, криминал, BDRip 720p] Galfimbul 50760536134.73 GB 3 0 1493874665

08:11

4-Май-17

Зарубежные фильмы 2016-2017 (Новинки зарубежного кино) ·· Хакер / Hacker (Акан Сатаев) [2016, триллер, драма, криминал, BDRip 1080p] Galfimbul 94691499628.82 GB 0 0 1493874656

08:10

4-Май-17

Зарубежные фильмы 2016-2017 (Новинки зарубежного кино) ·· Хакер / Hacker (Акан Сатаев) [2016, триллер, драма, криминал, DVDRip] Galfimbul 14676746241.37 GB 0 0 1491576154

17:42

7-Апр-17

Зарубежные фильмы до 2016 ·· Хакеры / Hackers (Айэйн Софтли / Iain Softley) [ 1995 , боевик, триллер, драма , HDTVRip] Dub Galfimbul 15621959681.45 GB 0 0 1365328571

12:56

7-Апр-13

Зарубежные фильмы до 2016 ·· Хакеры / Hackers (Айэйн Софтли / Iain Softley) [1995 г., Приключения, триллер, HDTVRip-AVC] MVO + Original Galfimbul 15558187391.45 GB 0 0 1365322736

11:18

7-Апр-13

Зарубежные фильмы до 2016 ·· Хакеры / Hackers (Айэйн Софтли / Iain Softley) [1995, США, Приключения, триллер, HDTVRip-AVC, 720p] 3 x MVO + Dub + original eng Galfimbul 28569654892.66 GB 0 0 1365321681

11:01

7-Апр-13

Зарубежные фильмы до 2016 ·· Хакеры / Hackers (Йен Софтли /Iain Softley) [1995 г., Триллер, DVDRip] Galfimbul 20482007041.91 GB 0 0 1365321337

10:55

7-Апр-13

Зарубежные фильмы до 2016 ·· Хакеры / Hackers (Иен Софтли /Iain Softley) [1995 г., экшен, криминал, триллер, HDRip] Galfimbul 20420321281.9 GB 0 0 1365320638

10:43

7-Апр-13

Зарубежные фильмы до 2016 ·· Хакеры / Hackers (Иэн Софтли / Iain Softley) [1995 г., Приключения, DVDRip] Galfimbul 14673452641.37 GB 0 0 1365318145

10:02

7-Апр-13

Зарубежные фильмы до 2016 ·· Хакеры / Hackers (Йен Софтли / Iain Softley) [1995, США, боевик, триллер, драма, криминал, HDTVRip] DVO (ТВ1000) Galfimbul 15621980161.45 GB 0 0 1355396940

14:09

13-Дек-12

Зарубежные фильмы до 2016 ·· Хакеры / Hackers (Айэйн Софтли / Iain Softley) [1995, боевик, триллер, киберпанк, HDTVRip] mikxtor 19827159041.85 GB 0 0 1290622592

21:16

24-Ноя-10

Зарубежные фильмы до 2016 ·· Хакеры / Hackers (Айэйн Софтли / Iain Softley) [1995, боевик, триллер, 720p, HDTVRip] Bot 56565590685.27 GB 0 0 1286383747

19:49

6-Окт-10

Документальные фильмы и телепередачи ·· Каменные джунгли (Вертикальный город) / Vertical City (Тамар Хакер / Tamar Hacker) / 1-2 сезоны, 22 серии из 22 [2008-2009, Документальный, познавательный, HDTV 1080i] Galfimbul 3455296137932.18 GB 0 0 1452356250

19:17

9-Янв-16

Документальные фильмы и телепередачи ·· BBC. Horizon. Как победить хакеров / Horizon: Defeating the Hackers / Сезон: 50 / Серия: 3 из 15 (Кате Дарт / Kate Dart) [2013, Документальный, научно-познавательный, SATRip] Galfimbul 720060416687 MB 0 0 1427722497

16:34

30-Мар-15

Документальные фильмы и телепередачи ·· Веллингтон. Железный герцог / Wellington. The Iron Duke (Рэйчел Белл / Rachel Bell, Мэри Кранич / Mary Cranitch, Джонатан Хакер / Jonathan Hacker) [2002, документальный, PDTVRip] Rus.Sub Galfimbul 18654197101.74 GB 0 0 1419806024

01:33

29-Дек-14

Документальные фильмы и телепередачи ·· Discovery: Шпионы в берлинском тоннеле / Discovery: Spies Beneath Berlin (Сэм Бенстид / Sam Benstead, Джонатан Хакер / Jonathan Hacker) [2011, Документальный, SATRip] Galfimbul 493475840471 MB 0 0 1419131325

06:08

21-Дек-14

Еще никто не оставлял запись к записи скачать торрент Хакер Hacker . Будь первым!

!Обратная связь