DragonHeart (1996) | Dragonheart 3: The Sorcerer's Curse (2015) | Dragonheart: Battle for the Heartfire / Dragonheart 4 (2017)

Скачать через торрент Берлинский синдром Berlin Syndrome Фильм бесплатно в хорошем качестве torrent

Скачивайте на UnionPeer.org фильмы через торрент без регистрации. Новинки кино в хорошем качестве через торрент. На UnionPeer.org можно скачать через торрент фильмы 2014 и 2015 годов. Самые новые фильмы.

Скачать торрент Берлинский синдром Berlin Syndrome бесплатно через .torrent фильм мультфильм сериал

Если у вас наблюдаются проблемы со скриншотами, переходом по ссылками, скачиванием торрентов - проблемы в блокировщике рекламы AdBlock. #хорошегоДня!


Статистика раздачи
Размер:  2.18 GB   |    Зарегистрирован:  9 дней   |    .torrent скачан:  86 раз   |   
Раздают:  2  
   
Загрузка...
 
Автор Сообщение

Galfimbul

avatar Galfimbul


Берлинский синдром / Berlin Syndrome «Если носить маску слишком долго, она станет лицом»
Страна: Австралия, Германия
Жанр: триллер, драма, детектив
Год выпуска: 2017
Продолжительность: 01:51:34Перевод: Профессиональный (дублированный) iTunes
Субтитры: русские, английские
Оригинальная аудиодорожка: английскаяРежиссер: Кейт Шортланд / Cate ShortlandВ ролях: Тереза Палмер, Макс Римельт, Люси Арон, Сем Тункай, Маттиас Хабих, Эмма Бадинг, Майя Абсберг, Морган Ферру, Кристина Костив, Чарли ТорнОписание: Когда во время отпуска в Берлине австралийская фотожурналистка Клэр встречает Энди, харизматичного местного парня, между ними мгновенно возникает взаимное притяжение. После совместной прогулки по улицам Берлина наступает ночь страсти, но то, что на первый взгляд кажется началом бурного романа, неожиданно принимает зловещий оборот. Клэр просыпается на следующее утро и понимает, что Энди ушел на работу, оставив ее запертой в своей квартире. Казалось бы, нелепая ошибка. За исключением того, что он не собирается ее отпускать. Когда-либо. Качество видео: BDRip / Berlin.Syndrome.2017.BDREMUX.1080p.ExKinoRay
Формат видео: AVIВидео: XviD build 67, 720x304 (2.35:1), 25.000 fps, ~1946 kbps avg, 0.356 bit/pixel
Аудио 1: 48 kHz, AC3 Dolby Digital, 3/2 (L,C,R,l,r) + LFE ch, ~384 kbps avg
Аудио 2: 48 kHz, AC3 Dolby Digital, 3/2 (L,C,R,l,r) + LFE ch, ~448 kbps avg
Complete name : D:\Раздачи\Берлинский синдром (2017) BDRip_ivanes20031987\Берлинский синдром (2017) BDRip_ivanes20031987.aviFormat : AVIFormat/Info : Audio Video InterleaveFormat profile : OpenDMLFile size : 2.18 GiBDuration : 1 h 51 minOverall bit rate : 2 796 kb/sWriting application : VirtualDubMod 1.5.10.3 (build 2550/release)Writing library : VirtualDubMod build 2550/release

VideoID : 0Format : MPEG-4 VisualFormat profile : Advanced [email protected] settings, BVOP : 1Format settings, QPel : NoFormat settings, GMC : No warppointsFormat settings, Matrix : CustomCodec ID : XVIDCodec ID/Hint : XviDDuration : 1 h 51 minBit rate : 1 946 kb/sWidth : 720 pixelsHeight : 304 pixelsDisplay aspect ratio : 2.35:1Frame rate : 25.000 FPSColor space : YUVChroma subsampling : 4:2:0Bit depth : 8 bitsScan type : ProgressiveCompression mode : LossyBits/(Pixel*Frame) : 0.356Stream size : 1.52 GiB (70%)Writing library : XviD 67

Audio #1ID : 1Format : AC-3Format/Info : Audio Coding 3Format settings, Endianness : BigCodec ID : 2000Duration : 1 h 51 minBit rate mode : ConstantBit rate : 384 kb/sChannel(s) : 6 channelsChannel positions : Front: L C R, Side: L R, LFESampling rate : 48.0 kHzFrame rate : 31.250 FPS (1536 SPF)Bit depth : 16 bitsCompression mode : LossyStream size : 306 MiB (14%)Alignment : Split accross interleavesInterleave, duration : 40 ms (1.00 video frame)Interleave, preload duratio : 500 msService kind : Complete Main

Audio #2ID : 2Format : AC-3Format/Info : Audio Coding 3Format settings, Endianness : BigCodec ID : 2000Duration : 1 h 51 minBit rate mode : ConstantBit rate : 448 kb/sChannel(s) : 6 channelsChannel positions : Front: L C R, Side: L R, LFESampling rate : 48.0 kHzFrame rate : 31.250 FPS (1536 SPF)Bit depth : 16 bitsCompression mode : LossyStream size : 358 MiB (16%)Alignment : Split accross interleavesInterleave, duration : 40 ms (1.00 video frame)Interleave, preload duratio : 500 msService kind : Complete Main


Трекер:  [ 14-Ноя-2017 19:01 ]

  

Скачать .torrent

Размер .torrent файла 11 KB


Размер: 2.18 GB
Хэш (hash) релиза: 8f00eedb4fb8219b405a605a41fa9ad0ba703d36
Подписка на обновления:

Торренты, похожие на Берлинский синдром Berlin Syndrome скачать торрент

Форум Название Автор Размер S L Добавлен
Зарубежные фильмы 2016-2017 (Новинки зарубежного кино) ·· Берлинский синдром / Berlin Syndrome (Кейт Шортланд / Cate Shortland) [2017, Австралия, Германия, триллер, драма, детектив, WEB-DLRip-AVC] Dub Galfimbul 15597778261.45 GB 0 0 1503514894

22:01

23-Авг-17

Зарубежные фильмы 2016-2017 (Новинки зарубежного кино) ·· Берлинский синдром / Berlin Syndrome (Кейт Шортланд / Cate Shortland) [2017, Австралия, Германия, триллер, драма, детектив, WEB-DLRip] Dub Galfimbul 15658496001.46 GB 0 0 1503514873

22:01

23-Авг-17

Зарубежные фильмы 2016-2017 (Новинки зарубежного кино) ·· Берлинский синдром / Berlin Syndrome (Кейт Шортланд / Cate Shortland) [2017, Австралия, Германия, Триллер, WEB-DL 1080p] iTunes Galfimbul 46295265354.31 GB 0 0 1503261046

23:30

20-Авг-17

Зарубежные фильмы 2016-2017 (Новинки зарубежного кино) ·· Берлинский синдром / Berlin Syndrome (Кейт Шортланд / Cate Shortland) [2017, Австралия, Германия, Триллер, WEB-DL 720p] iTunes Galfimbul 41357288523.85 GB 2 0 1503261037

23:30

20-Авг-17

Зарубежные фильмы 2016-2017 (Новинки зарубежного кино) ·· Берлинский синдром / Berlin Syndrome (Кейт Шортланд / Cate Shortland) [2017, Австралия, Германия, Триллер, WEB-DL 1080p] Galfimbul 46296116374.31 GB 0 0 1501224612

09:50

28-Июл-17

Зарубежные фильмы 2016-2017 (Новинки зарубежного кино) ·· Берлинский синдром / Berlin Syndrome (Кейт Шортланд / Cate Shortland) [2017, Австралия, Германия, Триллер, WEB-DLRip] VO (BadBajo) Galfimbul 16253480961.51 GB 2 0 1496596203

20:10

4-Июн-17

Еще никто не оставлял запись к записи скачать торрент Берлинский синдром Berlin Syndrome . Будь первым!

!Обратная связь