Thriller | Documentary | Cartoons

Скачать через торрент Мистер Робот Mr. Robot Фильм бесплатно в хорошем качестве torrent

Скачивайте на UnionPeer.org фильмы через торрент без регистрации. Новинки кино в хорошем качестве через торрент. На UnionPeer.org можно скачать через торрент фильмы 2014 и 2015 годов. Самые новые фильмы.

Скачать торрент Мистер Робот Mr. Robot бесплатно через .torrent фильм мультфильм сериал

Если у вас наблюдаются проблемы со скриншотами, переходом по ссылками, скачиванием торрентов - проблемы в блокировщике рекламы AdBlock. #хорошегоДня!


Статистика раздачи
Размер:  11.4 GB   |    Зарегистрирован:  7 дней   |    .torrent скачан:  13 раз   |   
Раздают:  1  
   
Загрузка...
 
Автор Сообщение

Galfimbul

avatar Galfimbul


Мистер Робот / Mr. Robot

Год выпуска: 2017
Страна: США, USA Network
Жанр: Детектив, драма, триллер
Продолжительность: ~50 мин.

Перевод: Субтитры Русские (Medveditsa)

Режиссёр: Сэм Эсмейл
В ролях: Рами Малек, Кристиан Слэйтер, Карли Чаикин, Портия Даблдэй, Мартин Волстром, Стефани Корнелиу, Майкл Кристофер, Грэйс Гаммер, Майкл Гилл, Сунита Мани

Описание: История молодого программиста Эллиота, страдающего диссоциальным расстройством личности и решившего, что единственный приемлемый для него способ взаимодействия с людьми - это профессия хакера. Таким образом, он быстро оказывается в том самом месте, где пересекаются интересы его работодателя - фирмы, занимающейся кибербезопасностью, - и подпольных организаций, которые пытаются его завербовать с целью обрушения самых могучих американских корпораций.

Ссылка на предыдущие и альтернативные раздачи:

Сэмпл: http://sendfile.su/1377446

Качество: WEBRip 1080p
Контейнер: MKV
Видео: MPEG-4 AVC, ~ 5700 Кбит/с, 1920х1080
Аудио: Английский (AAC, 6 ch, 640 Кбит/с)
Субтитры: Анастасия Кисленко (Medveditsa)
Реклама:
Отсутствует
1-5
General
Complete name : G:\Mr.Robot S03\Mr.Robot.S03E01.mkv
Format : Matroska
File size : 2.80 GiB
Duration : 53mn 24s
Overall bit rate : 7 515 Kbps
Encoded date : UTC 2017-10-12 07:32:13
Writing application : mkvmerge v10.0.0 ('To Drown In You') 64bit
Writing library : libebml v1.3.4 + libmatroska v1.4.5

Video
ID : 1
Format : AVC
Format/Info : Advanced Video Codec
Format profile : [email protected]
Format settings, CABAC : Yes
Format settings, ReFrames : 4 frames
Codec ID : V_MPEG4/ISO/AVC
Duration : 53mn 24s
Bit rate mode : Variable
Bit rate : 6 725 Kbps
Maximum bit rate : 15.0 Mbps
Width : 1 920 pixels
Height : 1 080 pixels
Display aspect ratio : 16:9
Frame rate : 23.976 fps
Color space : YUV
Chroma subsampling : 4:2:0
Bit depth : 8 bits
Scan type : Progressive
Bits/(Pixel*Frame) : 0.135
Stream size : 2.51 GiB (89%)
Color primaries : BT.709-5, BT.1361, IEC 61966-2-4, SMPTE RP177
Transfer characteristics : BT.709-5, BT.1361
Matrix coefficients : BT.709-5, BT.1361, IEC 61966-2-4 709, SMPTE RP177

Audio
ID : 2
Format : E-AC-3
Format/Info : Audio Coding 3
Codec ID : A_EAC3
Duration : 53mn 24s
Bit rate mode : Constant
Bit rate : 640 Kbps
Channel(s) : 6 channels
Channel positions : Front: L C R, Side: L R, LFE
Sampling rate : 48.0 KHz
Stream size : 244 MiB (9%)
Language : English

Text
ID : 3
Format : UTF-8
Codec ID : S_TEXT/UTF8
Codec ID/Info : UTF-8 Plain Text
Language : English

Menu
00:00:00.000 : en:Studio Logo
00:00:05.000 : en:Previously On
00:02:20.000 : en:Irving talks about redeeming a coupon
00:04:19.000 : en:Irving comes to see Elliot
00:06:18.000 : en:Whiterose wants to get the work done from Elliott
00:09:28.000 : en:Title Sequence
00:10:03.000 : en:Angela explains Elliot about how he came to her house
00:13:21.000 : en:Elliot asks help from Darlene
00:19:43.000 : en:Elliot tries to help the hackers to win the competition
00:25:43.000 : en:Irving rescues Elliot and Darlene
00:28:29.000 : en:Elliot decides to call the operation off
00:33:25.000 : en:Elliot blames himself for all the mistakes
00:37:27.000 : en:Elliot asks Angela to get him a job at Evil Corp
00:42:08.000 : en:Mr. Robot comes to know about backdoor
00:45:09.000 : en:Angela tells Irving that she is going to offer a job to Elliott
00:48:24.000 : en:Mr. Robot wants to know Angela's intentions to help them
00:52:57.000 : en:End Credits


Трекер:  [ 14-Ноя-2017 18:24 ]

  

Скачать .torrent

Размер .torrent файла 29 KB


Размер: 11.4 GB
Хэш (hash) релиза: 37f6e51d1a474e551c79dad7d87d132cfa76e3c0
Подписка на обновления:

Еще никто не оставлял запись к записи скачать торрент Мистер Робот Mr. Robot . Будь первым!

!Обратная связь