Kevin Nash | Brenock O'Connor | Lesley Sharp

Скачать через торрент Порох Gunpowder Фильм бесплатно в хорошем качестве torrent

Скачивайте на UnionPeer.org фильмы через торрент без регистрации. Новинки кино в хорошем качестве через торрент. На UnionPeer.org можно скачать через торрент фильмы 2014 и 2015 годов. Самые новые фильмы.

Скачать торрент Порох Gunpowder бесплатно через .torrent фильм мультфильм сериал

Если у вас наблюдаются проблемы со скриншотами, переходом по ссылками, скачиванием торрентов - проблемы в блокировщике рекламы AdBlock. #хорошегоДня!


Статистика раздачи
Размер:  4.8 GB   |    Зарегистрирован:  10 дней   |    .torrent скачан:  26 раз   |   
Раздают:  3  
   
Загрузка...
 
Автор Сообщение

Galfimbul

avatar Galfimbul


Порох / Gunpowder

Год выпуска: 2017
Страна: Великобритания, Kudos Film and Television, Thriker Films
Жанр: драма, история
Продолжительность: 00:58:00

Перевод: Субтитры Русские (Rebel Project)

Режиссёр: Дж. Блэйксон
В ролях: Кит Харингтон, Питер Муллан, Марк Гатисс, Люк Нил, Джейсон Редшо, Лив Тайлер, Дэвид Бамбер, Колин Кумбс, Том Каллен, Шон Дули

Описание: ачало семнадцатого века. Англия. В центре внимания сериала оказывается группа католиков, которые не могут больше терпеть власть короля Якова Первого. Тот ужесточает законы, которые касаются церкви и верующих. Отличная возможность покушения на короля выпадает на день, когда тот отправляется на заседание в Палату Лордов. Однако подготовка прошла не так, как планировалась. Государственные представители охраны правопорядка поймали заговорщика, который подготавливал взрывчатку. Гай Фокс совершил ошибку и был вынужден смириться со своей судьбой. С тех самых пор с 1605 года в Англии отмечают пятое ноября, запуская фейерверки и сжигают чучело Гая Фокса.

Ссылка на предыдущие и альтернативные раздачи:

Сэмпл: http://sendfile.su/1377346

Качество: HDTVRip 1080p
Контейнер: MKV
Видео: MPEG-4 AVC, ~ 3600 Кбит/с, 1920x800
Аудио: Английский (AC3, 2 ch, 192 Кбит/с)
Субтитры: Русские (Rebel Project)
Реклама:
Отсутствует
1-3
General
Complete name : E:\Gunpowder 2017\gunpowder.s01e01.mkv
Format : Matroska
File size : 1.61 GiB
Duration : 58mn 40s
Overall bit rate : 3 924 Kbps
Encoded date : UTC 2010-02-22 21:41:29
Writing application : no_variable_data
Writing library : no_variable_data

Video
ID : 1
Format : AVC
Format/Info : Advanced Video Codec
Format profile : [email protected]
Format settings, CABAC : Yes
Format settings, ReFrames : 4 frames
Codec ID : V_MPEG4/ISO/AVC
Duration : 58mn 40s
Bit rate : 3 654 Kbps
Width : 1 920 pixels
Height : 800 pixels
Display aspect ratio : 2.40:1
Frame rate : 25.000 fps
Color space : YUV
Chroma subsampling : 4:2:0
Bit depth : 8 bits
Scan type : Progressive
Bits/(Pixel*Frame) : 0.095
Stream size : 1.50 GiB (93%)
Writing library : x264 core 152 r2851 ba24899
Encoding settings : cabac=1 / ref=4 / deblock=1:0:0 / analyse=0x3:0x113 / me=hex / subme=8 / psy=1 / psy_rd=1.00:0.00 / mixed_ref=1 / me_range=16 / chroma_me=1 / trellis=2 / 8x8dct=1 / cqm=0 / deadzone=21,11 / fast_pskip=1 / chroma_qp_offset=-2 / threads=12 / lookahead_threads=2 / sliced_threads=0 / nr=0 / decimate=1 / interlaced=0 / bluray_compat=0 / constrained_intra=0 / bframes=3 / b_pyramid=2 / b_adapt=1 / b_bias=0 / direct=3 / weightb=1 / open_gop=0 / weightp=2 / keyint=250 / keyint_min=25 / scenecut=40 / intra_refresh=0 / rc_lookahead=50 / rc=crf / mbtree=1 / crf=17.0 / qcomp=0.60 / qpmin=0 / qpmax=69 / qpstep=4 / ip_ratio=1.40 / aq=1:1.00
Matrix coefficients : BT.709-5, BT.1361, IEC 61966-2-4 709, SMPTE RP177

Audio
ID : 2
Format : AC-3
Format/Info : Audio Coding 3
Mode extension : CM (complete main)
Codec ID : A_AC3
Duration : 58mn 40s
Bit rate mode : Constant
Bit rate : 192 Kbps
Channel(s) : 2 channels
Channel positions : Front: L R
Sampling rate : 48.0 KHz
Bit depth : 16 bits
Stream size : 80.6 MiB (5%)
Language : English


Трекер:  [ 14-Ноя-2017 08:24 ]

  

Скачать .torrent

Размер .torrent файла 12 KB


Размер: 4.8 GB
Хэш (hash) релиза: f44777ed6d08c1101a3fb8e9f2c07be4717cee60
Подписка на обновления:

Еще никто не оставлял запись к записи скачать торрент Порох Gunpowder . Будь первым!

!Обратная связь