Военные | Детективы | Документальное

Скачать через торрент Дурная кровь Bad Blood Фильм бесплатно в хорошем качестве torrent

Скачивайте на UnionPeer.org фильмы через торрент без регистрации. Новинки кино в хорошем качестве через торрент. На UnionPeer.org можно скачать через торрент фильмы 2014 и 2015 годов. Самые новые фильмы.

Скачать торрент Дурная кровь Bad Blood бесплатно через .torrent фильм мультфильм сериал

Если у вас наблюдаются проблемы со скриншотами, переходом по ссылками, скачиванием торрентов - проблемы в блокировщике рекламы AdBlock. #хорошегоДня!


Статистика раздачи
Размер:  836 MB   |    Зарегистрирован:  10 дней   |    .torrent скачан:  13 раз   |   
Раздают:  2  
   
Загрузка...
 
Автор Сообщение

Galfimbul

avatar Galfimbul


Дурная кровь | Bad Blood

Год выпуска: 2017
Страна: Канада
Жанр: драма, криминал
Продолжительность: ~00:45:00

Перевод: Любительский (двухголосый закадровый) ViruseProject

Режиссёр: Ален Дерошер
В ролях: Ким Коутс, Энтони ЛаПалья, Максим Рой, Тони Наппо, Бретт Донахью, Энрико Колантони, Пол Сорвино, Анджела Эшер, Валери Буагияр, Клаудиа Ферри и др.

Описание: История самого крупного мафиози в истории Канады. Вито Риззуто — босс преступной семьи, стремящийся принести спокойствие в криминальный мир Монреаля. Он делает значительные успехи, но после того, как в начале 2000-х годов он был арестован за участие во нескольких убийствах, совершённых много лет назад, его империя рушится. Освободившись из тюрьмы в 2012 году, Вито отправляется на путь мести.

Ссылка на предыдущие и альтернативные раздачи

Качество: HDTVRip 720p
Контейнер: MKV
Видео: 1280 x 640 (16:9), ~2000 Kbps, 23.976 fps, 8 bits
Аудио 1: 48 kHz, AC3 Dolby Digital, 2/0 (L,R) ch, ~192 kbps
Аудио 2: 48 kHz, AC3 Dolby Digital, 6 channels, ~384 kbps
Субтитры: русские (ViruseProject), английские

Реклама: В аудио в начале и конце по 12 секунд.

[b]Внимание! Раздача ведётся путём добавления новых серий; при каждом добавлении создаётся новый торрент. Чтобы начать докачку новой серии, пользователям необходимо сделать следующее:
(1) остановить скачивание,
(2) удалить старый торрент у себя из клиента (старые серии удалять не надо),
(3) скачать новый торрент и запустить его у себя в клиенте вместо старого, при этом указать клиенту путь в старую папку куда и должно происходить скачивание новых серий.

Eсли вы уже удалили старые серии, то предотвратить повторную закачку старых серий можно, отжав галочку в соответствующих местах при запуске нового торрента. По возможности, желательно не удалять старые серии как можно дольше чтобы релизёр не столько продолжал раздавать старые серии, а смог сконцентрироваться на новых.
General
Unique ID : 246671527938884812727625339690721561054 (0xB993354D27660500BDC7707AF5E549DE)
Complete name : E:\ОЗВУЧКА\777ЗАЛИВ777\Bad.Blood.2017.S01.ViruseProject\Bad.Blood.2017.S01.720p.ViruseProject\Bad.Blood.2017.S01E01.720p.ViruseProject.mkv
Format : Matroska
Format version : Version 4 / Version 2
File size : 836 MiB
Duration : 43 min 59 s
Overall bit rate : 2 656 kb/s
Encoded date : UTC 2017-11-13 14:47:17
Writing application : mkvmerge v8.3.0 ('Over the Horizon') 64bit
Writing library : libebml v1.3.1 + libmatroska v1.4.2

Video
ID : 1
Format : AVC
Format/Info : Advanced Video Codec
Format profile : [email protected]
Format settings : CABAC / 5 Ref Frames
Format settings, CABAC : Yes
Format settings, ReFrames : 5 frames
Codec ID : V_MPEG4/ISO/AVC
Duration : 43 min 58 s
Bit rate : 2 079 kb/s
Width : 1 280 pixels
Height : 640 pixels
Display aspect ratio : 2.000
Frame rate mode : Constant
Frame rate : 23.976 (24000/1001) FPS
Color space : YUV
Chroma subsampling : 4:2:0
Bit depth : 8 bits
Scan type : Progressive
Bits/(Pixel*Frame) : 0.106
Stream size : 654 MiB (78%)
Writing library : x264 core 152 r2851 ba24899
Encoding settings : cabac=1 / ref=5 / deblock=1:0:0 / analyse=0x3:0x113 / me=hex / subme=8 / psy=1 / psy_rd=1.00:0.00 / mixed_ref=1 / me_range=16 / chroma_me=1 / trellis=2 / 8x8dct=1 / cqm=0 / deadzone=21,11 / fast_pskip=1 / chroma_qp_offset=-2 / threads=20 / lookahead_threads=3 / sliced_threads=0 / nr=0 / decimate=1 / interlaced=0 / bluray_compat=0 / constrained_intra=0 / bframes=3 / b_pyramid=2 / b_adapt=1 / b_bias=0 / direct=3 / weightb=1 / open_gop=0 / weightp=2 / keyint=250 / keyint_min=23 / scenecut=40 / intra_refresh=0 / rc_lookahead=50 / rc=crf / mbtree=1 / crf=18.0 / qcomp=0.60 / qpmin=0 / qpmax=69 / qpstep=4 / ip_ratio=1.40 / aq=1:1.00
Default : Yes
Forced : No
Color range : Limited
Matrix coefficients : BT.709

Audio #1
ID : 2
Format : AC-3
Format/Info : Audio Coding 3
Codec ID : A_AC3
Duration : 43 min 59 s
Bit rate mode : Constant
Bit rate : 192 kb/s
Channel(s) : 2 channels
Channel positions : Front: L R
Sampling rate : 48.0 kHz
Frame rate : 31.250 FPS (1536 SPF)
Bit depth : 16 bits
Compression mode : Lossy
Stream size : 60.4 MiB (7%)
Title : ViruseProject
Language : Russian
Service kind : Complete Main
Default : No
Forced : No

Audio #2
ID : 3
Format : AC-3
Format/Info : Audio Coding 3
Codec ID : A_AC3
Duration : 43 min 58 s
Bit rate mode : Constant
Bit rate : 384 kb/s
Channel(s) : 6 channels
Channel positions : Front: L C R, Side: L R, LFE
Sampling rate : 48.0 kHz
Frame rate : 31.250 FPS (1536 SPF)
Bit depth : 16 bits
Compression mode : Lossy
Stream size : 121 MiB (14%)
Language : English
Service kind : Complete Main
Default : No
Forced : No

Text #1
ID : 4
Format : UTF-8
Codec ID : S_TEXT/UTF8
Codec ID/Info : UTF-8 Plain Text
Duration : 43 min 23 s
Bit rate : 123 b/s
Count of elements : 763
Stream size : 39.2 KiB (0%)
Title : ViruseProject
Language : Russian
Default : No
Forced : No

Text #2
ID : 5
Format : UTF-8
Codec ID : S_TEXT/UTF8
Codec ID/Info : UTF-8 Plain Text
Duration : 43 min 22 s
Bit rate : 72 b/s
Count of elements : 774
Stream size : 23.0 KiB (0%)
Language : English
Default : No
Forced : No


Трекер:  [ 14-Ноя-2017 07:54 ]

  

Скачать .torrent

Размер .torrent файла 17 KB


Размер: 836 MB
Хэш (hash) релиза: d670752fa5221057d19fc22a1a70965946995fd6
Подписка на обновления:

Еще никто не оставлял запись к записи скачать торрент Дурная кровь Bad Blood . Будь первым!

!Обратная связь