Отечественный Рок, Панк, Альтернатива, Металл (Неофициальные DVD Video) | Рок-музыка (HD Video) | The Unguided - And The...

Скачать через торрент Проклятая нация Damnation Фильм бесплатно в хорошем качестве torrent

Скачивайте на UnionPeer.org фильмы через торрент без регистрации. Новинки кино в хорошем качестве через торрент. На UnionPeer.org можно скачать через торрент фильмы 2014 и 2015 годов. Самые новые фильмы.

Скачать торрент Проклятая нация Damnation бесплатно через .torrent фильм мультфильм сериал

Если у вас наблюдаются проблемы со скриншотами, переходом по ссылками, скачиванием торрентов - проблемы в блокировщике рекламы AdBlock. #хорошегоДня!


Статистика раздачи
Размер:  742 MB   |    Зарегистрирован:  10 дней   |    .torrent скачан:  6 раз   |   
Раздают:  1  
   
Загрузка...
 
Автор Сообщение

Galfimbul

avatar Galfimbul


Проклятая нация / Damnation

Год выпуска: 2017
Страна: США
Жанр: драма, криминал, вестерн
Продолжительность: ~ 55 мин.
Перевод: Профессиональный (многоголосый закадровый) LostFilmРежиссёры:Адам Кэйн, Род Лури, Эва Сёрхёуг и др.
В ролях: Кристофер Хейердал, Тич Грант, Киллиан Скотт, Логан Маршалл-Грин, Сара Джонс, Арнольд Пиннок, Дэн Донохью, Дэвид Нэйсом, Вики Ламберт, Роэн Мид и др.

Описание: Действие разворачивается в маленьком городке в Айове в 1930-е. Туда практически одновременно прибывают молодой пастор, призывающий бедноту выступить против богатеев, и лихой штрейкбрехер, нанятый этими самыми богачами, чтобы помешать планам пастора. Никто в городе не догадывается, что эти двое — родные братья.IMDbКачество: WEBRip
Контейнер: AVI
Видео: 720x400 (1.80:1), 23.976 fps, XviD build 50 ~1498 kbps avg, 0.22 bit/pixel
Аудио #1: 48 kHz, MPEG Layer 3, 2 ch, ~192.00 kbps avg (Rus)
Аудио #2: 48 kHz, MPEG Layer 3, 2 ch, ~192.00 kbps avg (Eng)
Субтитры: нет
Реклама: отсутствует
01. Sam Riley's Body
02.
Общее
Полное имя : D:\Видео\Сериалы\Damnation\Damnation.S01E01.avi
Формат : AVI
Формат/Информация : Audio Video Interleave
Размер файла : 742 Мбайт
Продолжительность : 54 м. 39 с.
Общий поток : 1898 Кбит/сек
Программа кодирования : VirtualDubMod 1.5.10.2 (build 2540/release)
Библиотека кодирования : VirtualDubMod build 2540/release

Видео
Идентификатор : 0
Формат : MPEG-4 Visual
Профиль формата : Advanced [email protected]
Настройки формата : BVOP1
Параметр BVOP формата : 1
Параметр QPel формата : Нет
Параметр GMC формата : Без точки перехода
Параметр матрицы формата : Default (H.263)
Идентификатор кодека : XVID
Идентификатор кодека/Подсказка : XviD
Продолжительность : 54 м. 39 с.
Битрейт : 1500 Кбит/сек
Ширина : 720 пикселей
Высота : 400 пикселей
Соотношение сторон : 16:9
Частота кадров : 23,976 (24000/1001) кадра/сек
Цветовое пространство : YUV
Субдискретизация насыщенности : 4:2:0
Битовая глубина : 8 бит
Тип развёртки : Прогрессивная
Метод сжатия : С потерями
Бит/(Пиксели*Кадры) : 0.217
Размер потока : 586 Мбайт (79%)
Библиотека кодирования : XviD 1.2.1 (UTC 2008-12-04)

Аудио #1
Идентификатор : 1
Формат : MPEG Audio
Версия формата : Version 1
Профиль формата : Layer 3
Настройки формата : Joint stereo / MS Stereo
Идентификатор кодека : 55
Идентификатор кодека/Подсказка : MP3
Продолжительность : 54 м. 39 с.
Вид битрейта : Постоянный
Битрейт : 192 Кбит/сек
Каналы : 2 канала
Частота : 48,0 КГц
Частота кадров : 41,667 кадра/сек (1152 SPF)
Метод сжатия : С потерями
Размер потока : 75,1 Мбайт (10%)
Выравнивание : Соединение по промежуткам
Продолжительность промежутка : 42 мс. (1,00 видеокадр)
Время предзагрузки промежутка : 504 мс.
Библиотека кодирования : LAME3.99.5UUяВм‰ьIр°

Аудио #2
Идентификатор : 2
Формат : MPEG Audio
Версия формата : Version 1
Профиль формата : Layer 3
Настройки формата : Joint stereo / MS Stereo
Идентификатор кодека : 55
Идентификатор кодека/Подсказка : MP3
Продолжительность : 54 м. 39 с.
Вид битрейта : Постоянный
Битрейт : 192 Кбит/сек
Каналы : 2 канала
Частота : 48,0 КГц
Частота кадров : 41,667 кадра/сек (1152 SPF)
Метод сжатия : С потерями
Размер потока : 75,1 Мбайт (10%)
Выравнивание : Соединение по промежуткам
Продолжительность промежутка : 42 мс. (1,00 видеокадр)
Время предзагрузки промежутка : 504 мс.
Библиотека кодирования : LAME3.99.5
Раздача ведётся путём добавления новых серий; при каждом добавлении создётся новый торрент. Чтобы начать докачку новой серии, пользователям необходимо сделать следующее:
(1) остановить скачивание,
(2) удалить старый торрент у себя из клиента (старые серии удалять не надо),
(3) скачать новый торрент и запустить его у себя в клиенте вместо старого, при этом указать клиенту путь в старую папку куда и должно происходить скачивание новых серий.
Ваш клиент при этом должен произвести хеширование (проверку) старой папки (если не производит сам - помогите ему сделать это), и будет докачивать только те серии которых у вас ещё нет. Старые серии при этом не удаляются, а продолжают раздаваться!
Eсли вы уже удалили старые серии, то предотвратить повторную закачку старых серий можно, отжав галочку в соответсвующих местах при запуске нового торрента.


Трекер:  [ 14-Ноя-2017 00:48 ]

  

Скачать .torrent

Размер .torrent файла 15 KB


Размер: 742 MB
Хэш (hash) релиза: e659e65e8921fd64131a47c83b318b086c33e4e3
Подписка на обновления:

Еще никто не оставлял запись к записи скачать торрент Проклятая нация Damnation . Будь первым!

!Обратная связь