Watch movie | True Blood All seasons | The Last Train

Скачать через торрент Уровень The Level Фильм бесплатно в хорошем качестве torrent

Скачивайте на UnionPeer.org фильмы через торрент без регистрации. Новинки кино в хорошем качестве через торрент. На UnionPeer.org можно скачать через торрент фильмы 2014 и 2015 годов. Самые новые фильмы.

Скачать торрент Уровень The Level бесплатно через .torrent фильм мультфильм сериал

Если у вас наблюдаются проблемы со скриншотами, переходом по ссылками, скачиванием торрентов - проблемы в блокировщике рекламы AdBlock. #хорошегоДня!


Статистика раздачи
Размер:  4.11 GB   |    Зарегистрирован:  6 дней   |    .torrent скачан:  22 раза   |   
Раздают:  2  
   
Загрузка...
 
Автор Сообщение

Galfimbul

avatar Galfimbul


Уровень / The Level

Год выпуска: 2016
Страна: Великобритания
Жанр: Триллер, драма
Продолжительность: 00:48:00

Перевод: Профессиональный (многоголосый закадровый) True Dubbing Studio по заказу телеканала Spike

Режиссёр: Марк Эверест, Энди Годдард

В ролях: Линдси Колсон, Роб Джеймс-Колльер, Филип Гленистер, Ноэль Кларк, Джофф Белл, Лорни МакФадьен, Джейн Хазлгроув, Рут Маделей, Эшли Кумар, Келли Харрисон

Описание: Детектив получает задание по расследованию убийства очередного наркоторговца. Кто бы мог подумать, что это дело окажется связано не только с профессиональной деятельностью главной героини, но и ее личной жизнью. Вскоре выясняется, что детектив, ведущая дело, является прямым свидетелем нераскрытого преступления.

Ссылка на предыдущие и альтернативные раздачи:

Сэмпл: http://multi-up.com/1176157

Качество: HDRip
Формат: AVI
Видео: MPEG4, DivX 5, 720x400 (16:9), 23.976 fps, 1 643 Kbps (0.238 bit/pixel)
Аудио: AC-3, 48.0 KHz, 2 ch, 192 Kbps, CBR - русский
Аудио 2: AC-3, 48.0 KHz, 2 ch, 192 Kbps, CBR - английский
Субтитры: нет

Реклама:
нет
Общее
Полное имя : M:\The.Level.S01E01.HDRip.Rus.Eng.avi
Формат : AVI
Формат/Информация : Audio Video Interleave
Размер файла : 701 Мбайт
Продолжительность : 48 м.
Общий поток : 2042 Кбит/сек
Название фильма : Уровень. Сезон 1 / The Level. Season 1 (2016)
Программа кодирования : VirtualDubMod 1.5.10.2 (build 2540/release)
Библиотека кодирования : VirtualDubMod build 2540/release
Авторское право : miha2154

Видео
Идентификатор : 0
Формат : MPEG-4 Visual
Профиль формата : Advanced Simple@L5
Параметр BVOP формата : 1
Параметр QPel формата : Нет
Параметр GMC формата : Без точки перехода
Параметр матрицы формата : Выборочная
Идентификатор кодека : DX50
Идентификатор кодека/Подсказка : DivX 5
Продолжительность : 48 м.
Битрейт : 1643 Кбит/сек
Ширина : 720 пикселей
Высота : 400 пикселей
Соотношение сторон : 16:9
Частота кадров : 23,976 (24000/1001) кадра/сек
Цветовое пространство : YUV
Субдискретизация насыщенности : 4:2:0
Битовая глубина : 8 бит
Тип развёртки : Прогрессивная
Метод сжатия : С потерями
Бит/(Пиксели*Кадры) : 0.238
Размер потока : 564 Мбайт (80%)
Библиотека кодирования : XviD 65

Аудио #1
Идентификатор : 1
Формат : AC-3
Формат/Информация : Audio Coding 3
Расширение режима : CM (complete main)
Параметр Endianness формата : Big
Идентификатор кодека : 2000
Продолжительность : 48 м.
Вид битрейта : Постоянный
Битрейт : 192 Кбит/сек
Каналы : 2 канала
Расположение каналов : Front: L R
Частота : 48,0 КГц
Частота кадров : 31,250 кадров/сек (1536 spf)
Метод сжатия : С потерями
Размер потока : 65,9 Мбайт (9%)
Выравнивание : Разделение по промежуткам
Продолжительность промежутка : 42 мс. (1,00 видеокадр)
Время предзагрузки промежутка : 500 мс.
Заголовок : Профессиональный (многоголосый закадровый) Spike HD

Аудио #2
Идентификатор : 2
Формат : AC-3
Формат/Информация : Audio Coding 3
Расширение режима : CM (complete main)
Параметр Endianness формата : Big
Идентификатор кодека : 2000
Продолжительность : 48 м.
Вид битрейта : Постоянный
Битрейт : 192 Кбит/сек
Каналы : 2 канала
Расположение каналов : Front: L R
Частота : 48,0 КГц
Частота кадров : 31,250 кадров/сек (1536 spf)
Метод сжатия : С потерями
Размер потока : 65,9 Мбайт (9%)
Выравнивание : Разделение по промежуткам
Продолжительность промежутка : 42 мс. (1,00 видеокадр)
Время предзагрузки промежутка : 500 мс.
Заголовок : Английский


Трекер:  [ 13-Ноя-2017 18:18 ]

  

Скачать .torrent

Размер .torrent файла 21 KB


Размер: 4.11 GB
Хэш (hash) релиза: e558e4154ccc4cd20bbe5580f7fe80827b0ad71b
Подписка на обновления:

Торренты, похожие на Уровень The Level скачать торрент

Форум Название Автор Размер S L Добавлен
Зарубежные сериалы ·· Уровень / The Level / Сезон: 1 / Серии: 1-6 из 6 (Марк Эверест, Энди Годдард) [2016, Великобритания, Hillbilly Television, Триллер, драма, HDTVRip 720p] Original + Rus Sub (Notabenoid SeRRegina) Galfimbul 41153145473.83 GB 0 0 1505049876

16:24

10-Сен-17

Еще никто не оставлял запись к записи скачать торрент Уровень The Level . Будь первым!

!Обратная связь