Hinterland | Hoje Eu Quero Voltar Sozinho | Home Fires

Скачать через торрент Искатели сокровищ Detectorists Фильм бесплатно в хорошем качестве torrent

Скачивайте на UnionPeer.org фильмы через торрент без регистрации. Новинки кино в хорошем качестве через торрент. На UnionPeer.org можно скачать через торрент фильмы 2014 и 2015 годов. Самые новые фильмы.

Скачать торрент Искатели сокровищ Detectorists бесплатно через .torrent фильм мультфильм сериал

Если у вас наблюдаются проблемы со скриншотами, переходом по ссылками, скачиванием торрентов - проблемы в блокировщике рекламы AdBlock. #хорошегоДня!


Статистика раздачи
Размер:  484 MB   |    Зарегистрирован:  10 дней   |    .torrent скачан:  5 раз   |   
Раздают:  1  
   
Загрузка...
 
Автор Сообщение

Galfimbul

avatar Galfimbul


Искатели сокровищ / Detectorists

Год выпуска: 2017
Страна: Великобритания
Жанр: Комедия
Продолжительность: 00:27:00

Перевод: Субтитры lyutemoki, Lord32x

Режиссёр: Маккензи Крук / Mackenzie Crook
В ролях: Маккензи Крук, Тоби Джонс, Ракл Стерлинг, Дайана Ригг, Ребекка Каллард

Описание: И снова мы встречаемся с двумя друзьями Энди (Маккензи Крук) и Лэнсом (Тоби Джонса), общей страстью которых является кладоискательство. Вернувшись из Африки, Энди и Бекки на время перебрались к матери Бекки,
со всеми вытекающими последствиями отношений зять-тёща. Лэнс пытается построить отношения с Тони, а также ужиться со своей дочерью, чему уне способствует появление его бывшей жены. Между тем, поиски золота продолжаются.

Ссылка на предыдущие и альтернативные раздачи:

Сэмпл: http://yadi.sk/i/AVjBooCq3Pf3mj

Качество: WEBRip 720p
Контейнер: MKV
Видео: AVC, 1280x720 (16:9), 25.000 fps, 2332 Kbps
Аудио: AAC, 48 KHz, 2 channels, 93.5 Kbps
Субтитры: lyutemoki, Lord32x
Реклама:
нет
Общее
Полное имя : L:\Detectorists S03E01 (8 November 2017) HDTV 720p.mp4
Формат : MPEG-4
Профиль формата : Base Media
Идентификатор кодека : isom (isom/iso2/avc1/mp41)
Размер файла : 484 Мбайт
Продолжительность : 27 м. 50 с.
Режим общего битрейта : Переменный
Общий поток : 2431 Кбит/сек
Коллекция : Detectorists: Series 3
Сезон : 3
Альбом : Detectorists: Series 3
Альбом/Исполнитель : BBC TV
Часть : 1
Часть/Положение : 3
Трек : Episode 1
Трек/Положение : 1
Группирование : Comedy,Sitcoms
Исполнитель : BBC Four
Композитор : BBC iPlayer
Жанр : Comedy
Тип содержимого : TV Show
Описание : Lance's flat isn't his own, while Andy's stuck with the mother-in-law.
Дата записи : UTC 2017-11-08 22:00:00
Дата пометки : UTC 2017-11-08 23:02:33
Программа кодирования : Lavf57.56.101
Авторское право : 2017 British Broadcasting Corporation, all rights reserved
Обложка : Yes
Текст песен : Lance's flat isn't his own any more and Andy's staying with the mother-in-law. But at least they have their old faithful permission to escape. Or do they? The dark cloud of a solar farm threatens the tranquillity. / / EPISODE / http://www.bbc.co.uk/iplayer/episode/b09f2ndg / / SERIES / http://www.bbc.co.uk/programmes/b09f2nbd
Примечание : Lance's flat isn't his own, while Andy's stuck with the mother-in-law.
LongDescription : Lance's flat isn't his own any more and Andy's staying with the mother-in-law. But at least they have their old faithful permission to escape. Or do they? The dark cloud of a solar farm threatens the tranquillity.
HDVideo : Yes
Part_ID : s03e01
TVNetworkName : BBC Four

Видео
Идентификатор : 1
Формат : AVC
Формат/Информация : Advanced Video Codec
Профиль формата : [email protected]
Настройки формата : CABAC / 2 Ref Frames
Параметр CABAC формата : Да
Параметр RefFrames формата : 2 кадра
Идентификатор кодека : avc1
Идентификатор кодека/Информация : Advanced Video Coding
Продолжительность : 27 м. 50 с.
Вид битрейта : Переменный
Битрейт : 2332 Кбит/сек
Максимальный битрейт : 3500 Кбит/сек
Ширина : 1280 пикселей
Высота : 720 пикселей
Соотношение сторон : 16:9
Режим частоты кадров : Постоянный
Частота кадров : 25,000 кадров/сек
Цветовое пространство : YUV
Субдискретизация насыщенности : 4:2:0
Битовая глубина : 8 бит
Тип развёртки : Прогрессивная
Бит/(Пиксели*Кадры) : 0.101
Размер потока : 464 Мбайт (96%)

Аудио
Идентификатор : 2
Формат : AAC
Формат/Информация : Advanced Audio Codec
Профиль формата : LC
Идентификатор кодека : mp4a-40-2
Продолжительность : 27 м. 50 с.
Вид битрейта : Постоянный
Битрейт : 93,4 Кбит/сек
Каналы : 2 канала
Расположение каналов : Front: L R
Частота : 48,0 КГц
Частота кадров : 46,875 кадров/сек (1024 SPF)
Метод сжатия : С потерями
Размер потока : 18,6 Мбайт (4%)
Default : Да
AlternateGroup/String : 1
Внимание! Раздача ведётся путём добавления новых серий; при каждом добавлении создаётся новый торрент. Чтобы начать докачку новой серии, пользователям необходимо сделать следующее:
(1) остановить скачивание,
(2) удалить старый торрент у себя из клиента (старые серии удалять не надо),
(3) скачать новый торрент и запустить его у себя в клиенте вместо старого, при этом указать клиенту путь в старую папку куда и должно происходить скачивание новых серий.

Ваш клиент при этом должен произвести хеширование (проверку) старой папки (если не производит сам - помогите ему сделать это), и будет докачивать только те серии которых у вас ещё нет. Старые серии при этом не удаляются, а продолжают раздаваться!

Eсли вы уже удалили старые серии, то предотвратить повторную закачку старых серий можно, отжав галочку в соответствующих местах при запуске нового торрента. По возможности, желательно не удалять старые серии как можно дольше чтобы релизёр не столько продолжал раздавать старые серии, а смог сконцентрироваться на новых.


Трекер:  [ 13-Ноя-2017 17:54 ]

  

Скачать .torrent

Размер .torrent файла 19 KB


Размер: 484 MB
Хэш (hash) релиза: 54338b70668dc872195f3013f185ab2ac92a7305
Подписка на обновления:

Еще никто не оставлял запись к записи скачать торрент Искатели сокровищ Detectorists . Будь первым!

!Обратная связь