Скачать через торрент Полицейские из Гавра Deux flics sur les docks Фильм бесплатно в хорошем качестве torrent

Скачивайте на UnionPeer.org фильмы через торрент без регистрации. Новинки кино в хорошем качестве через торрент. На UnionPeer.org можно скачать через торрент фильмы 2014 и 2015 годов. Самые новые фильмы.

Скачать торрент Полицейские из Гавра Deux flics sur les docks бесплатно через .torrent фильм мультфильм сериал

Если у вас наблюдаются проблемы со скриншотами, переходом по ссылками, скачиванием торрентов - проблемы в блокировщике рекламы AdBlock. #хорошегоДня!


Статистика раздачи
Размер:  1.99 GB   |    Зарегистрирован:  10 дней   |    .torrent скачан:  5 раз   |   
Раздают:  1  
   
Загрузка...
 
Автор Сообщение

Galfimbul

avatar Galfimbul


Полицейские из Гавра
Deux flics sur les docks / Blood on the Docks
Год выпуска: 2014
Страна: Франция
Жанр: полицейский детектив, экранизация
Продолжительность: 01:26:00Перевод: Субтитры (русский перевод А.Вижье, М.Лабори, Éclair Media)

Режиссёр: Эдвин Бэйли / Edwin Baily

В ролях: Жан-Марк Барр / Jean-Marc Barr (Richard Faraday), Брюно Соло / Bruno Solo (Paul Winckler), Мата Габен / Mata Gabin (Lucie Dardenne), Лиза Манили / Lisa Manili (Julie Fabian), Эммануэль Салинже / Emmanuel Salinger (Bazza Swaty), Гийом Вири / Guillaume Viry (Bill Gates)

Описание: адаптация серии романов британского писателя Грэма Хёрли / Graham Hurley под общим названием "DI Joe Faraday series" (2004-2012).

Полицейским Фарадею и Уинклеру поручают расследовать преступления в портовых доках Гавра. Два полицейских противостоят миру, где правит сильный, и в одиночку вынуждены восстанавливать справедливость...

Доп. информация: Hot Bird (13.0°E) TV5MONDE Europe DVB-S

Качество: DVB
Формат: MKV
Видео: MPEG Video 2, [email protected] (16:9), 25 fps, ~3056 kbps avg, 0.295 bit/pixel
Аудио: MPEG Audio 2, 2 ch, 48 kHz, 192.00 kbps - французский
Субтитры: русские, нидерландские, румынские - prerendered (IDX+SUB); английские, французские - softsub (SRT)
Реклама: отсутствует
Сезон 4, Эпизод 01: Столь прекрасная смерть / Une si jolie mort (2014)
GeneralUnique ID : 188439674863069502541709182380153160207 (0x8DC42947DF5F33DA94C83B4A5312C20F)Complete name : [apreder]Deux_flics_sur_les_docks_s.4_ep.01(2014)DVB.mkvFormat : MatroskaFormat version : Version 2File size : 1.99 GiBDuration : 1 h 25 minOverall bit rate mode : VariableOverall bit rate : 3 314 kb/sMovie name : Deux flics sur les docksReleased date : 2014-10-24Encoded date : UTC 2017-11-13 14:19:19Writing application : mkvmerge v17.0.0 ('Be Ur Friend') 64-bitWriting library : libebml v1.3.5 + libmatroska v1.4.8Cover : YesAttachments : cover.jpg / small_cover.jpgACTOR : Jean-Marc Barr, Bruno SoloDIRECTOR : Edwin BailyGENRE : CrimeIMDB : tt4188938KEYWORDS : rutracker.orgLAW_RATING : 16+SUMMARY : s.4, ep. 01 Une si jolie mort

VideoID : 1Format : MPEG VideoFormat version : Version 2Format profile : [email protected] settings : BVOPFormat settings, BVOP : YesFormat settings, Matrix : DefaultFormat settings, GOP : VariableFormat settings, picture structure : FrameCodec ID : V_MPEG2Codec ID/Info : MPEG 1 or 2 VideoDuration : 1 h 25 minBit rate mode : VariableBit rate : 3 056 kb/sWidth : 720 pixelsHeight : 576 pixelsDisplay aspect ratio : 16:9Frame rate mode : ConstantFrame rate : 25.000 FPSStandard : PALColor space : YUVChroma subsampling : 4:2:0Bit depth : 8 bitsScan type : InterlacedScan order : Top Field FirstCompression mode : LossyBits/(Pixel*Frame) : 0.295Time code of first frame : 00:00:00:00Time code source : Group of pictures headerGOP, Open/Closed : OpenGOP, Open/Closed of first frame : ClosedStream size : 1.84 GiB (92%)Default : YesForced : No

AudioID : 2Format : MPEG AudioFormat version : Version 1Format profile : Layer 2Format settings : Joint stereo / Intensity Stereo + MS StereoCodec ID : A_MPEG/L2Codec ID/Hint : MP2Duration : 1 h 25 minBit rate mode : ConstantBit rate : 192 kb/sChannel(s) : 2 channelsSampling rate : 48.0 kHzCompression mode : LossyStream size : 118 MiB (6%)Language : FrenchDefault : YesForced : No

Text #1ID : 3Format : VobSubCodec ID : S_VOBSUBCodec ID/Info : Picture based subtitle format used on DVDsLanguage : RussianDefault : NoForced : No

Text #2ID : 4Format : UTF-8Codec ID : S_TEXT/UTF8Codec ID/Info : UTF-8 Plain TextLanguage : EnglishDefault : NoForced : No

Text #3ID : 5Format : UTF-8Codec ID : S_TEXT/UTF8Codec ID/Info : UTF-8 Plain TextLanguage : FrenchDefault : NoForced : No

Text #4ID : 6Format : VobSubCodec ID : S_VOBSUBCodec ID/Info : Picture based subtitle format used on DVDsLanguage : DutchDefault : NoForced : No

Text #5ID : 7Format : VobSubCodec ID : S_VOBSUBCodec ID/Info : Picture based subtitle format used on DVDsLanguage : RomanianDefault : NoForced : No


<div class="sp-wrap">
<div class="sp-head folded">Резервные скриншоты</div>
<div class="sp-body">

</div>
</div>
Внимание! Раздача ведётся путём добавления новых выпусков; при каждом добавлении создаётся новый торрент. Чтобы начать докачку нового выпуска, пользователям необходимо сделать следующее:
(1) остановить скачивание,
(2) удалить старый торрент у себя из клиента (старые серии удалять не надо),
(3) скачать новый торрент и запустить его у себя в клиенте вместо старого, при этом указать клиенту путь в старую папку куда и должно происходить скачивание новых выпусков.

Ваш клиент при этом должен произвести хеширование (проверку) старой папки (если не производит сам - помогите ему сделать это). В результате он будет докачивать только те выпуски, которых у Вас ещё нет. Старые выпуски при этом не удаляются, а продолжают раздаваться!

Eсли Вы уже удалили старые выпуски, то предотвратить их повторную закачку можно, сняв галочки в соответствующих местах при запуске нового торрента. По возможности, желательно не удалять старые выпуски как можно дольше, чтобы релизёр не только продолжал раздавать старые выпуски, но и смог сконцентрироваться на новых.
[3'949]

Трекер:  [ 13-Ноя-2017 17:48 ]

  

Скачать .torrent

Размер .torrent файла 10 KB


Размер: 1.99 GB
Хэш (hash) релиза: 1d76639dd197b38fa141e2ecf27f60a6e8cf8dfb
Подписка на обновления:

Еще никто не оставлял запись к записи скачать торрент Полицейские из Гавра Deux flics sur les docks . Будь первым!

!Обратная связь