TweakBit Driver Updater Terbaru | Bu Forumu okunmus kabul et | Attraction (2017)

Скачать через торрент Девственница Джейн Jane the virgin Фильм бесплатно в хорошем качестве torrent

Скачивайте на UnionPeer.org фильмы через торрент без регистрации. Новинки кино в хорошем качестве через торрент. На UnionPeer.org можно скачать через торрент фильмы 2014 и 2015 годов. Самые новые фильмы.

Скачать торрент Девственница Джейн Jane the virgin бесплатно через .torrent фильм мультфильм сериал

Если у вас наблюдаются проблемы со скриншотами, переходом по ссылками, скачиванием торрентов - проблемы в блокировщике рекламы AdBlock. #хорошегоДня!


Статистика раздачи
Размер:  1.28 GB   |    Зарегистрирован:  6 дней   |    .torrent скачан:  4 раза   |   
Раздают:  1  
   
Загрузка...
 
Автор Сообщение

Galfimbul

avatar Galfimbul


Девственница Джейн / Jane the virgin

Год выпуска: 2017
Страна: США
Жанр: Драма, комедия
Продолжительность: ~ 00:44:00

Перевод: Профессиональный (многоголосый закадровый) | Jaskier

Режиссёр: Дебби Аллен, Ута Бризвитц, Эдвард Орнелас

В ролях: Джина Родригез, Андреа Наведо, Яэль Гробглас, Джастин Бальдони, Ивонн Колл, Бретт Дир, Хайме Камиль, Ази Тесфай, Энтони Мендес, Бриджет Риган, Присцилла Барнс, Дженна Ортега, Камилль Коллар, Дайан Герерро, Брайан ДаРе, Карло Рота, Яра Мартинес, Крис Корбин, Грег Коллинз, Дэвид Кастанеда

Описание: Джейн выросла под влиянием строгой латиноамериканской бабушки, которая с ранних лет учила внучку скромности и воздержанию. Даже став красивой молодой женщиной, она оставалась целомудренной и пресекала все неприличные поползновения своего жениха. Но обычный поход к гинекологу изменил всю жизнь Джейн. Она стала жертвой случайного искусственного оплодотворения! Мир перевернулся с ног на голову, и теперь ей предстоит принять сложное решение, разобраться с шокированной родней, познакомиться с биологическим отцом малыша и сделать еще много такого, о чем две недели назад она не могла и помыслить.



Качество: WEB-DL 720p
Формат: MKV
Видео: X264, ~ 3500 kbps, 1280x720 (16:9), 23.976 fps
Аудио 1: AC3, 48,0 КГц, 6 ch, 384 kbps - RUS
Аудио 2: AC3, 48,0 КГц, 6 ch, 384 kbps - ENG
Субтитры: отсутствуют
Реклама: аудио, два раза в начале и в конце по 12 секунд
Общее
Уникальный идентификатор                 : 177216435141863717843690582686451999218 (0x8552A4D72306BAE2B9844C3C656DA1F2)
Формат                                   : Matroska
Версия формата                           : Version 2
Размер файла                             : 1,28 Гбайт
Продолжительность                        : 42 м.
Режим общего битрейта                    : Переменный
Общий поток                              : 4297 Кбит/сек
Дата кодирования                         : UTC 2017-11-13 09:01:52
Программа кодирования                    : mkvmerge v5.8.0 ('No Sleep / Pillow') built on Sep  2 2012 15:37:04
Библиотека кодирования                   : libebml v1.2.3 + libmatroska v1.3.0

Видео
Идентификатор                            : 1
Формат                                   : AVC
Формат/Информация                        : Advanced Video Codec
Профиль формата                          : High@L3.1
Параметр CABAC формата                   : Да
Параметр ReFrames формата                : 5 кадров
Идентификатор кодека                     : V_MPEG4/ISO/AVC
Продолжительность                        : 42 м.
Вид битрейта                             : Переменный
Битрейт                                  : 3444 Кбит/сек
Максимальный битрейт                     : 4500 Кбит/сек
Ширина                                   : 1280 пикселей
Высота                                   : 720 пикселей
Соотношение сторон                       : 16:9
Режим частоты кадров                     : Постоянный
Частота кадров                           : 23,976 (24000/1001) кадра/сек
Цветовое пространство                    : YUV
Субдискретизация насыщенности            : 4:2:0
Битовая глубина                          : 8 бит
Тип развёртки                            : Прогрессивная
Бит/(Пиксели*Кадры)                      : 0.156
Размер потока                            : 1,02 Гбайт (80%)
Default                                  : Да
Forced                                   : Нет
Цветовой диапазон                        : Limited
Основные цвета                           : BT.709
Характеристики трансфера                 : BT.709
Коэффициенты матрицы                     : BT.709

Аудио #1
Идентификатор                            : 2
Формат                                   : AC-3
Формат/Информация                        : Audio Coding 3
Расширение режима                        : CM (complete main)
Параметр Endianness формата              : Big
Идентификатор кодека                     : A_AC3
Продолжительность                        : 42 м.
Вид битрейта                             : Постоянный
Битрейт                                  : 384 Кбит/сек
Каналы                                   : 6 каналов
Расположение каналов                     : Front: L C R, Side: L R, LFE
Частота                                  : 48,0 КГц
Частота кадров                           : 31,250 кадров/сек (1536 spf)
Метод сжатия                             : С потерями
Размер потока                            : 117 Мбайт (9%)
Язык                                     : Russian
Default                                  : Да
Forced                                   : Нет

Аудио #2
Идентификатор                            : 3
Формат                                   : AC-3
Формат/Информация                        : Audio Coding 3
Расширение режима                        : CM (complete main)
Параметр Endianness формата              : Big
Идентификатор кодека                     : A_AC3
Продолжительность                        : 42 м.
Вид битрейта                             : Постоянный
Битрейт                                  : 384 Кбит/сек
Каналы                                   : 6 каналов
Расположение каналов                     : Front: L C R, Side: L R, LFE
Частота                                  : 48,0 КГц
Частота кадров                           : 31,250 кадров/сек (1536 spf)
Метод сжатия                             : С потерями
Размер потока                            : 117 Мбайт (9%)
Язык                                     : English
Default                                  : Нет
Forced                                   : Нет
Когда раздача ведётся путём добавления новых серий, при каждом добавлении создётся новый торрент. Чтобы начать докачку новой серии, пользователям необходимо сделать следующее:
(1) остановить скачивание,
(2) удалить старый торрент у себя из клиента (старые серии удалять не надо),
(3) скачать новый торрент и запустить его у себя в клиенте вместо старого, при этом указать клиенту путь в старую папку, куда и должно происходить скачивание новых серий.
Ваш клиент при этом должен произвести хеширование (проверку) старой папки (если не производит сам - помогите ему сделать это), и будет докачивать только те серии, которых у вас ещё нет. Старые серии при этом не удаляются, а продолжают раздаваться!
Eсли вы уже удалили старые серии, то предотвратить повторную закачку старых серий можно, отжав галочку в соответсвующих местах при запуске нового торрента. По возможности, желательно не удалять старые серии как можно дольше, чтобы релизёр не столько продолжал раздавать старые серии, а смог сконцентрироваться на новых.


Трекер:  [ 13-Ноя-2017 14:24 ]

  

Скачать .torrent

Размер .torrent файла 13 KB


Размер: 1.28 GB
Хэш (hash) релиза: 24693353326f4d3749ed9ec87a390e2d8dd745fb
Подписка на обновления:

Торренты, похожие на Девственница Джейн Jane the virgin скачать торрент

Форум Название Автор Размер S L Добавлен
Зарубежные сериалы ·· Девственница Джейн / Jane the virgin / Сезон: 4 / Серия: 1 из 20 (Дебби Аллен, Ута Бризвитц, Эдвард Орнелас) [2017, США, Драма, комедия, WEB-DLRip] MVO (Jaskier) Galfimbul 532488192508 MB 0 0 1510572196

14:23

13-Ноя-17

Еще никто не оставлял запись к записи скачать торрент Девственница Джейн Jane the virgin . Будь первым!

!Обратная связь