Скачать через торрент Девственница Джейн Jane the virgin Фильм бесплатно в хорошем качестве torrent

Скачивайте на UnionPeer.org фильмы через торрент без регистрации. Новинки кино в хорошем качестве через торрент. На UnionPeer.org можно скачать через торрент фильмы 2014 и 2015 годов. Самые новые фильмы.

Скачать торрент Девственница Джейн Jane the virgin бесплатно через .torrent фильм мультфильм сериал

Если у вас наблюдаются проблемы со скриншотами, переходом по ссылками, скачиванием торрентов - проблемы в блокировщике рекламы AdBlock. #хорошегоДня!


Статистика раздачи
Размер:  508 MB   |    Зарегистрирован:  10 дней   |    .torrent скачан:  4 раза   |   
Раздают:  1  
   
Загрузка...
 
Автор Сообщение

Galfimbul

avatar Galfimbul


Девственница Джейн / Jane the virgin

Год выпуска: 2017
Страна: США
Жанр: Драма, комедия
Продолжительность: ~ 00:44:00

Перевод: Профессиональный (многоголосый закадровый) | Jaskier

Режиссёр: Дебби Аллен, Ута Бризвитц, Эдвард Орнелас

В ролях: Джина Родригез, Андреа Наведо, Яэль Гробглас, Джастин Бальдони, Ивонн Колл, Бретт Дир, Хайме Камиль, Ази Тесфай, Энтони Мендес, Бриджет Риган, Присцилла Барнс, Дженна Ортега, Камилль Коллар, Дайан Герерро, Брайан ДаРе, Карло Рота, Яра Мартинес, Крис Корбин, Грег Коллинз, Дэвид Кастанеда

Описание: Джейн выросла под влиянием строгой латиноамериканской бабушки, которая с ранних лет учила внучку скромности и воздержанию. Даже став красивой молодой женщиной, она оставалась целомудренной и пресекала все неприличные поползновения своего жениха. Но обычный поход к гинекологу изменил всю жизнь Джейн. Она стала жертвой случайного искусственного оплодотворения! Мир перевернулся с ног на голову, и теперь ей предстоит принять сложное решение, разобраться с шокированной родней, познакомиться с биологическим отцом малыша и сделать еще много такого, о чем две недели назад она не могла и помыслить.



Качество: WEB-DLRip
Формат: AVI
Видео: XviD, ~ 1400 kbps, 720x400, 23.976 fps
Аудио 1: MP3, 48,0 КГц, 2 ch, 128 kbps - RUS
Аудио 2: MP3, 48,0 КГц, 2 ch, 128 kbps - ENG
Субтитры: отсутствуют
Реклама: аудио, два раза в начале и в конце по 12 секунд
Общее
Формат                                   : AVI
Формат/Информация                        : Audio Video Interleave
Размер файла                             : 508 Мбайт
Продолжительность                        : 42 м.
Общий поток                              : 1669 Кбит/сек
Программа кодирования                    : VirtualDubMod 1.5.10.3 | www.virtualdub-fr.org || (build 2550/release)
Библиотека кодирования                   : VirtualDubMod build 2550/release

Видео
Идентификатор                            : 0
Формат                                   : MPEG-4 Visual
Профиль формата                          : Advanced [email protected]
Параметр BVOP формата                    : 2
Параметр QPel формата                    : Нет
Параметр GMC формата                     : Без точки перехода
Параметр матрицы формата                 : Выборочная
Идентификатор кодека                     : XVID
Идентификатор кодека/Подсказка           : XviD
Продолжительность                        : 42 м.
Битрейт                                  : 1399 Кбит/сек
Ширина                                   : 720 пикселей
Высота                                   : 400 пикселей
Соотношение сторон                       : 16:9
Частота кадров                           : 23,976 (23976/1000) кадра/сек
Цветовое пространство                    : YUV
Субдискретизация насыщенности            : 4:2:0
Битовая глубина                          : 8 бит
Тип развёртки                            : Прогрессивная
Метод сжатия                             : С потерями
Бит/(Пиксели*Кадры)                      : 0.203
Размер потока                            : 426 Мбайт (84%)
Библиотека кодирования                   : XviD 73

Аудио #1
Идентификатор                            : 1
Формат                                   : MPEG Audio
Версия формата                           : Version 1
Профиль формата                          : Layer 3
Режим                                    : Joint stereo
Расширение режима                        : MS Stereo
Идентификатор кодека                     : 55
Идентификатор кодека/Подсказка           : MP3
Продолжительность                        : 42 м.
Вид битрейта                             : Постоянный
Битрейт                                  : 128 Кбит/сек
Каналы                                   : 2 канала
Частота                                  : 48,0 КГц
Метод сжатия                             : С потерями
Размер потока                            : 38,9 Мбайт (8%)
Выравнивание                             : Соединение по промежуткам
Продолжительность промежутка             : 42  мс. (1,00 видеокадр)
Время предзагрузки промежутка            : 504  мс.

Аудио #2
Идентификатор                            : 2
Формат                                   : MPEG Audio
Версия формата                           : Version 1
Профиль формата                          : Layer 3
Режим                                    : Joint stereo
Расширение режима                        : MS Stereo
Идентификатор кодека                     : 55
Идентификатор кодека/Подсказка           : MP3
Продолжительность                        : 42 м.
Вид битрейта                             : Постоянный
Битрейт                                  : 128 Кбит/сек
Каналы                                   : 2 канала
Частота                                  : 48,0 КГц
Метод сжатия                             : С потерями
Размер потока                            : 38,9 Мбайт (8%)
Выравнивание                             : Соединение по промежуткам
Продолжительность промежутка             : 42  мс. (1,00 видеокадр)
Время предзагрузки промежутка            : 504  мс.
Когда раздача ведётся путём добавления новых серий, при каждом добавлении создётся новый торрент. Чтобы начать докачку новой серии, пользователям необходимо сделать следующее:
(1) остановить скачивание,
(2) удалить старый торрент у себя из клиента (старые серии удалять не надо),
(3) скачать новый торрент и запустить его у себя в клиенте вместо старого, при этом указать клиенту путь в старую папку, куда и должно происходить скачивание новых серий.
Ваш клиент при этом должен произвести хеширование (проверку) старой папки (если не производит сам - помогите ему сделать это), и будет докачивать только те серии, которых у вас ещё нет. Старые серии при этом не удаляются, а продолжают раздаваться!
Eсли вы уже удалили старые серии, то предотвратить повторную закачку старых серий можно, отжав галочку в соответсвующих местах при запуске нового торрента. По возможности, желательно не удалять старые серии как можно дольше, чтобы релизёр не столько продолжал раздавать старые серии, а смог сконцентрироваться на новых.


Трекер:  [ 13-Ноя-2017 14:18 ]

  

Скачать .torrent

Размер .torrent файла 20 KB


Размер: 508 MB
Хэш (hash) релиза: b0721a90584c66e31ab866257d05aeaf5b586bc7
Подписка на обновления:

Торренты, похожие на Девственница Джейн Jane the virgin скачать торрент

Форум Название Автор Размер S L Добавлен
Зарубежные сериалы ·· Девственница Джейн / Jane the virgin / Сезон: 4 / Серия: 1 из 20 (Дебби Аллен, Ута Бризвитц, Эдвард Орнелас) [2017, США, Драма, комедия, WEB-DL 720p] MVO (Jaskier) Galfimbul 13706983001.28 GB 0 0 1510572272

14:24

13-Ноя-17

Еще никто не оставлял запись к записи скачать торрент Девственница Джейн Jane the virgin . Будь первым!

!Обратная связь