Las Vegas | play_circle_outline | The Dinner (2017) 720p ..

Скачать через торрент Очень странные дела Крайне странные события Фильм бесплатно в хорошем качестве torrent

Скачивайте на UnionPeer.org фильмы через торрент без регистрации. Новинки кино в хорошем качестве через торрент. На UnionPeer.org можно скачать через торрент фильмы 2014 и 2015 годов. Самые новые фильмы.

Скачать торрент Очень странные дела Крайне странные события бесплатно через .torrent фильм мультфильм сериал

Если у вас наблюдаются проблемы со скриншотами, переходом по ссылками, скачиванием торрентов - проблемы в блокировщике рекламы AdBlock. #хорошегоДня!


Статистика раздачи
Размер:  25.42 GB   |    Зарегистрирован:  6 дней   |    .torrent скачан:  14 раз   |   
Раздают:  2   Качают:  1  
   
Загрузка...
 
Автор Сообщение

Galfimbul

avatar Galfimbul


Крайне странные события / Stranger Things
Оригинальное название: Stranger Things
Русское название: Крайне странные события
Год выпуска: 2017
Страна: США
Жанр: Ужасы, фантастика, триллер, драма, детектив, приключения
Продолжительность: ~40-60 мин.
Перевод: Профессиональный (многоголосый закадровый) Студия Good People
Субтитры: Да (английские)

Режиссёр: Мэтт Даффер, Росс Даффер, Шон Леви
В ролях: Вайнона Райдер, Дэвид Харбор, Финн Вулфхарт, Милли Бобби Браун, Гейтен Матараццо, Кейлеб МакЛохлен, Наталия Дайер, Чарли Хитон, Кейра Буоно, Мэттью Модайн и др.

Описание: Главное действие нового телевизионного сериала разворачивается в 80-х годах на территории тихого провинциального города. Благоприятное течение местной жизни нарушает загадочное исчезновение подростка по имени Уилл. Выяснить обстоятельства дела, полны решимости родные мальчика и местный шериф. Также события затрагивают лучшего друга Уилла – Майка. Он начинает собственное расследование, в процессе которого встречает группу людей со сверхспособностями. Теперь Майк уверен, что близок к разгадке, однако для этого ему предстоит оказаться в эпицентре ожесточенной битвы потусторонних сил. Действие второго сезона сериала начинается через год после событий, показанных в первом. Герои пытаются вернуться к обычной жизни, но встреча с необъяснимым не делает их жизнь проще.Доп. информация: Та самая озвучка, тот самый состав, те самые эмоции.

Для удобства зрителей - в раздаче представлены 2 версии озвучки!
1) 10-голосая озвучка, Дастина и Оди озвучивают новые голоса, т.к оригинальные актёры повзрослели,
2) 10-голосая озвучка, Дастина и Оди озвучивают те же актёры, что и раньше.Сэмпл
Качество: WEBRip 720p
Формат: MKV
Видео кодек: AVC
Аудио кодек: AC3
Видео: H264, 1280x640, 23.976 fps, ~6500kbps, 0.334 bit/pixelАудио 1: Dolby AC3 48000Hz 5.1 384 Kbps Русский v1
Аудио 2: Dolby AC3 48000Hz 5.1 384 Kbps Русский v2
Аудио 3: Dolby AC3 48000Hz 5.1 384 Kbps ОригиналРеклама: Присутствует звуковая (два раза в начале и конце по 12 сек.)
General
Unique ID                   : 253320018753439859022410990522535459780 (0xBE93A934DEFED7358E4F44844A3F3BC4)
Complete name               : Stranger.Things.S02E01.Chapter.One.MADMAX.720p.NF.WEBRip.DD5.1.x264-GoodPeople.mkv
Format                      : Matroska
Format version              : Version 2
File size                   : 2.65 GiB
Duration                    : 47mn 49s
Overall bit rate            : 7 938 Kbps
Encoded date                : UTC 2017-11-13 00:18:45
Writing application         : mkvmerge v5.4.0 ('Piper') built on Mar 10 2012 13:34:39
Writing library             : libebml v1.2.3 + libmatroska v1.3.0
DURATION                    : 00:44:02.890000000
NUMBER_OF_FRAMES            : 512
NUMBER_OF_BYTES             : 18923
_STATISTICS_WRITING_APP     : mkvmerge v15.0.0 ('Duel with the Devil') 64-bit
_STATISTICS_WRITING_DATE_UT : 2017-10-27 19:42:17
_STATISTICS_TAGS            : BPS DURATION NUMBER_OF_FRAMES NUMBER_OF_BYTES

Video
ID                          : 1
Format                      : AVC
Format/Info                 : Advanced Video Codec
Format profile              : High@L4.1
Format settings, CABAC      : Yes
Format settings, ReFrames   : 10 frames
Codec ID                    : V_MPEG4/ISO/AVC
Duration                    : 47mn 49s
Bit rate                    : 6 564 Kbps
Width                       : 1 280 pixels
Height                      : 640 pixels
Display aspect ratio        : 2.000
Frame rate mode             : Constant
Frame rate                  : 23.976 fps
Color space                 : YUV
Chroma subsampling          : 4:2:0
Bit depth                   : 8 bits
Scan type                   : Progressive
Bits/(Pixel*Frame)          : 0.334
Stream size                 : 2.19 GiB (83%)
Writing library             : x264 core 152 r2851kMod ba24899
Encoding settings           : cabac=1 / ref=10 / deblock=1:-3:-3 / analyse=0x3:0x133 / me=umh / subme=10 / psy=1 / fade_compensate=0.00 / psy_rd=1.00:0.00 / mixed_ref=1 / me_range=48 / chroma_me=1 / trellis=2 / 8x8dct=1 / cqm=0 / deadzone=21,11 / fast_pskip=0 / chroma_qp_offset=-2 / threads=12 / lookahead_threads=2 / sliced_threads=0 / nr=0 / decimate=0 / interlaced=0 / bluray_compat=0 / constrained_intra=0 / bframes=8 / b_pyramid=2 / b_adapt=2 / b_bias=0 / direct=3 / weightb=1 / open_gop=0 / weightp=2 / keyint=250 / keyint_min=23 / scenecut=40 / intra_refresh=0 / rc=crf / mbtree=0 / crf=16.0000 / qcomp=0.60 / qpmin=0 / qpmax=69 / qpstep=4 / ip_ratio=1.30 / pb_ratio=1.20 / aq=3:0.80
Language                    : English
Default                     : Yes
Forced                      : No
DURATION                    : 00:47:49.242000000
NUMBER_OF_FRAMES            : 68793
NUMBER_OF_BYTES             : 2410055927
_STATISTICS_WRITING_APP     : mkvmerge v15.0.0 ('Duel with the Devil') 64-bit
_STATISTICS_WRITING_DATE_UT : 2017-10-27 19:42:17
_STATISTICS_TAGS            : BPS DURATION NUMBER_OF_FRAMES NUMBER_OF_BYTES

Audio #1
ID                          : 2
Format                      : AC-3
Format/Info                 : Audio Coding 3
Mode extension              : CM (complete main)
Format settings, Endianness : Big
Codec ID                    : A_AC3
Duration                    : 47mn 49s
Bit rate mode               : Constant
Bit rate                    : 384 Kbps
Channel(s)                  : 6 channels
Channel positions           : Front: L C R, Side: L R, LFE
Sampling rate               : 48.0 KHz
Compression mode            : Lossy
Stream size                 : 131 MiB (5%)
Title                       : v1
Language                    : Russian
Default                     : Yes
Forced                      : No

Audio #2
ID                          : 3
Format                      : AC-3
Format/Info                 : Audio Coding 3
Mode extension              : CM (complete main)
Format settings, Endianness : Big
Codec ID                    : A_AC3
Duration                    : 47mn 49s
Bit rate mode               : Constant
Bit rate                    : 448 Kbps
Channel(s)                  : 6 channels
Channel positions           : Front: L C R, Side: L R, LFE
Sampling rate               : 48.0 KHz
Compression mode            : Lossy
Stream size                 : 153 MiB (6%)
Title                       : v2
Language                    : Russian
Default                     : No
Forced                      : No

Audio #3
ID                          : 4
Format                      : AC-3
Format/Info                 : Audio Coding 3
Mode extension              : CM (complete main)
Format settings, Endianness : Big
Codec ID                    : A_AC3
Duration                    : 47mn 49s
Bit rate mode               : Constant
Bit rate                    : 384 Kbps
Channel(s)                  : 6 channels
Channel positions           : Front: L C R, Side: L R, LFE
Sampling rate               : 48.0 KHz
Compression mode            : Lossy
Stream size                 : 131 MiB (5%)
Language                    : English
Default                     : No
Forced                      : No

Text
ID                          : 5
Format                      : UTF-8
Codec ID                    : S_TEXT/UTF8
Codec ID/Info               : UTF-8 Plain Text
Language                    : English
Default                     : No
Forced                      : No


Трекер:  [ 13-Ноя-2017 07:24 ]

  

Скачать .torrent

Размер .torrent файла 65 KB


Размер: 25.42 GB
Хэш (hash) релиза: 7324c9bbbcb52388ef358932e1468f2e50bce66e
Подписка на обновления:

Торренты, похожие на Очень странные дела Крайне странные события скачать торрент

Форум Название Автор Размер S L Добавлен
Зарубежные сериалы ·· Очень странные дела / Крайне странные события / Stranger Things / Сезон: 2 / Серии: 1-9 из 9 (Мэтт Даффер, Росс Даффер, Шон Леви) [2017, США, Ужасы, триллер, драма, WEBRip 1080p] MVO (Jaskier) + Original + Eng Subs Galfimbul 5286801057149.24 GB 2 1 1509737101

22:25

3-Ноя-17

Зарубежные сериалы ·· Очень странные дела / Крайне странные события / Stranger Things / Сезон: 2 / Серии: 1-9 из 9 (Мэтт Даффер, Росс Даффер, Шон Леви) [2017, США, Ужасы, триллер, драма, WEBRip 720p] MVO (Jaskier) + Original + Eng Subs Galfimbul 2568684345823.92 GB 0 0 1509737087

22:24

3-Ноя-17

Зарубежные сериалы ·· Очень странные дела / Крайне странные события / Stranger Things / Сезон: 2 / Серии: 1-9 из 9 (Мэтт Даффер, Росс Даффер, Шон Леви) [2017, США, Ужасы, триллер, драма, WEBRip] MVO (Jaskier) + Original Galfimbul 58253189125.43 GB 0 0 1509737064

22:24

3-Ноя-17

Зарубежные сериалы ·· Очень странные дела / Крайне странные события / Stranger Things / Сезон: 2 / Серии: 1-9 из 9 (Мэтт Даффер, Росс Даффер, Шон Леви) [2017, США, ужасы, фантастика, приключения, WEBRip 400p] MVO (NewStudio) + Original + Subs (Rus, Eng) Galfimbul 97342975419.07 GB 2 1 1509634436

17:53

2-Ноя-17

Зарубежные сериалы ·· Очень странные дела / Крайне странные события / Stranger Things / Сезон: 2 / Серии: 1-9 из 9 (Мэтт Даффер, Росс Даффер, Шон Леви) [2017, США, ужасы, фантастика, приключения, WEBRip 1080p] MVO (NewStudio) + Original + Subs (Rus, Eng) Galfimbul 5285457519949.22 GB 0 0 1509632681

17:24

2-Ноя-17

Зарубежные сериалы ·· Очень странные дела / Крайне странные события / Stranger Things / Сезон: 2 / Серии: 1-2 из 9 (Мэтт Даффер, Росс Даффер, Шон Леви) [2017, США, ужасы, фантастика, триллер, драма, детектив, приключения, WEBRip 1080p] MVO (Good People) + Original + Sub Galfimbul 1161676476610.82 GB 0 0 1509533686

13:54

1-Ноя-17

Зарубежные сериалы ·· Очень странные дела / Крайне странные события / Stranger Things / Сезон: 2 / Серии: 1-2 из 9 (Мэтт Даффер, Росс Даффер, Шон Леви) [2017, США, Ужасы, триллер, драма, WEBRip] MVO (Good People) + Original Galfimbul 13631283201.27 GB 0 0 1509533679

13:54

1-Ноя-17

Зарубежные сериалы ·· Очень странные дела / Загадочные события / Крайне странные события / Stranger Things / Сезон: 2 / Серии: 1- из 9 (Мэтт Даффер, Росс Даффер, Шон Леви) [2017, США, Ужасы, триллер, драма, WEBRip] MVO (LostFilm) Galfimbul 989812736944 MB 0 0 1510696569

00:56

15-Ноя-17

mostwanted

прикольный сериал,смотрел первый сезон

Хотите добавить комментарий к записи скачать торрент Очень странные дела Крайне странные события

!Обратная связь