Point Break (2015) | Военные | Every Witch Way

Скачать через торрент Особо Тяжкие Преступления Major Crimes Фильм бесплатно в хорошем качестве torrent

Скачивайте на UnionPeer.org фильмы через торрент без регистрации. Новинки кино в хорошем качестве через торрент. На UnionPeer.org можно скачать через торрент фильмы 2014 и 2015 годов. Самые новые фильмы.

Скачать торрент Особо Тяжкие Преступления Major Crimes бесплатно через .torrent фильм мультфильм сериал

Если у вас наблюдаются проблемы со скриншотами, переходом по ссылками, скачиванием торрентов - проблемы в блокировщике рекламы AdBlock. #хорошегоДня!


Статистика раздачи
Размер:  2.83 GB   |    Зарегистрирован:  7 дней   |    .torrent скачан:  4 раза   |   
Раздают:  1  
   
Загрузка...
 
Автор Сообщение

Galfimbul

avatar Galfimbul


Особо Тяжкие Преступления / Major Crimes
Год выпуска: 2016
Страна: США
Жанр: детектив
Продолжительность: 00:44:00
Перевод: Любительский (двухголосый закадровый) - (DreamRecords)
Субтитры: Отсутствуют
Режиссёр: Michael M. Robin

В ролях: Мэри МакДоннел, Джордж Бейли, Тони Дэнесон, Майкал Пол Чен, Раймонд Круз

Описание: Продолжение сериала Ищейка. После увольнения Бренды Ли Джонсон руководство Отделом Ососбо Опасных преступлений полиции Лос-Анджелеса берет в свои руки капитан Рэйдор. Однако ей предстоит работать в команде, котроая заранее испытывает к ней антипатию, ведь антипатию к ней всегда испытывала шеф Джонсон.Доп. информация:Монтаж и сведение звука: Алексей Фокин
Автор рипа: Алексей Фокин
Роли озвучивали:

Владимир Чистохин
Полина Касаткина

Автор постера: Вячеслав Вернидуб
СэмплКачество: WEB-DL 720p
Формат: MKV
Видео кодек: h.264
Аудио кодек: AC3
Видео: 1 280x718, 3 939 kb/s, 23.976 fps, 0.179 bit/pixel
Аудио 1: AC3, 48 KHz, 6 ch, 384 Kbps - Rus
Аудио 2: AC3, 48 KHz, 6 ch, 384 Kbps - Eng
Субтитры: ОтсутствуютПрисутствует реклама онлайн-кинотеатра. (Короткая звуковая вставка в конце)
Format                      : Matroska
Format version              : Version 2
File size                   : 1.41 GiB
Duration                    : 42 min 10 s
Overall bit rate            : 4 803 kb/s
Encoded date                : UTC 2017-11-12 12:45:02
Writing application         : mkvmerge v5.8.0 ('No Sleep / Pillow') built on Sep  2 2012 15:37:04
Writing library             : libebml v1.2.3 + libmatroska v1.3.0

Video
ID                          : 1
Format                      : AVC
Format/Info                 : Advanced Video Codec
Format profile              : High@L3.1
Format settings, CABAC      : No
Format settings, ReFrames   : 2 frames
Codec ID                    : V_MPEG4/ISO/AVC
Duration                    : 42 min 10 s
Bit rate                    : 3 939 kb/s
Width                       : 1 280 pixels
Height                      : 718 pixels
Display aspect ratio        : 16:9
Frame rate mode             : Constant
Frame rate                  : 23.976 FPS
Color space                 : YUV
Chroma subsampling          : 4:2:0
Bit depth                   : 8 bits
Scan type                   : Progressive
Bits/(Pixel*Frame)          : 0.179
Stream size                 : 1.16 GiB (82%)
Language                    : English
Default                     : Yes
Forced                      : No
Color range                 : Limited
Color primaries             : BT.709
Transfer characteristics    : BT.709
Matrix coefficients         : BT.709

Audio #1
ID                          : 2
Format                      : AC-3
Format/Info                 : Audio Coding 3
Mode extension              : CM (complete main)
Format settings, Endianness : Big
Codec ID                    : A_AC3
Duration                    : 42 min 10 s
Bit rate mode               : Constant
Bit rate                    : 384 kb/s
Channel(s)                  : 6 channels
Channel positions           : Front: L C R, Side: L R, LFE
Sampling rate               : 48.0 kHz
Frame rate                  : 31.250 FPS (1536 spf)
Bit depth                   : 16 bits
Compression mode            : Lossy
Stream size                 : 116 MiB (8%)
Title                       : DreamRecords
Language                    : Russian
Default                     : No
Forced                      : No

Audio #2
ID                          : 3
Format                      : AC-3
Format/Info                 : Audio Coding 3
Mode extension              : CM (complete main)
Format settings, Endianness : Big
Codec ID                    : A_AC3
Duration                    : 42 min 10 s
Bit rate mode               : Constant
Bit rate                    : 384 kb/s
Channel(s)                  : 6 channels
Channel positions           : Front: L C R, Side: L R, LFE
Sampling rate               : 48.0 kHz
Frame rate                  : 31.250 FPS (1536 spf)
Bit depth                   : 16 bits
Compression mode            : Lossy
Stream size                 : 116 MiB (8%)
Title                       : Original
Language                    : English
Default                     : No
Forced                      : No
Внимание! Раздача ведётся путём добавления новых серий; при каждом добавлении создётся новый торрент. Чтобы начать докачку новой серии, пользователям необходимо сделать следующее:
(1) остановить скачивание,
(2) удалить старый торрент у себя из клиента (старые серии удалять не надо),
(3) скачать новый торрент и запустить его у себя в клиенте вместо старого, при этом указать клиенту путь в старую папку куда и должно происходить скачивание новых серий.
Ваш клиент при этом должен произвести хеширование (проверку) старой папки (если не производит сам - помогите ему сделать это), и будет докачивать только те серии которых у вас ещё нет. Старые серии при этом не удаляются, а продолжают раздаваться!
Eсли вы уже удалили старые серии, то предотвратить повторную закачку старых серий можно, отжав галочку в соответсвующих местах при запуске нового торрента. По возможности, желательно не удалять старые серии как можно дольше чтобы релизёр не столько продолжал раздавать старые серии, а смог сконцентрироваться на новых.
Раздача WEB-DLRip 400p <img class="smile" src="//static.t-ru.org/smiles/icon_arrow.gif" alt=""> Добавлена 2 серия! <img class="smile" src="//static.t-ru.org/smiles/icon_smile.gif" alt=""> <img class="smile" src="//static.t-ru.org/smiles/icon_arrow2.gif" alt=""> Не забываем говорить "Спасибо!" <img class="smile" src="//static.t-ru.org/smiles/icon_smile.gif" alt="">

Трекер:  [ 12-Ноя-2017 18:54 ]

  

Скачать .torrent

Размер .torrent файла 14 KB


Размер: 2.83 GB
Хэш (hash) релиза: d5c7e73c23c0cf5dfa5d9dd66b4e37602fa7ca3c
Подписка на обновления:

Торренты, похожие на Особо Тяжкие Преступления Major Crimes скачать торрент

Форум Название Автор Размер S L Добавлен
Зарубежные сериалы ·· Особо Тяжкие Преступления / Major Crimes / Сезон: 5 / Серии: 1-2 из 23 (Michael M. Robin) [2016, США, детектив, WEB-DLRip] DVO (DreamRecords) Galfimbul 950214656906 MB 0 0 1510500233

18:23

12-Ноя-17

Еще никто не оставлял запись к записи скачать торрент Особо Тяжкие Преступления Major Crimes . Будь первым!

!Обратная связь