Spine Chillers | Spirited | SpongeBob SquarePants

Скачать через торрент Особо Тяжкие Преступления Major Crimes Фильм бесплатно в хорошем качестве torrent

Скачивайте на UnionPeer.org фильмы через торрент без регистрации. Новинки кино в хорошем качестве через торрент. На UnionPeer.org можно скачать через торрент фильмы 2014 и 2015 годов. Самые новые фильмы.

Скачать торрент Особо Тяжкие Преступления Major Crimes бесплатно через .torrent фильм мультфильм сериал

Если у вас наблюдаются проблемы со скриншотами, переходом по ссылками, скачиванием торрентов - проблемы в блокировщике рекламы AdBlock. #хорошегоДня!


Статистика раздачи
Размер:  906 MB   |    Зарегистрирован:  11 дней   |    .torrent скачан:  4 раза   |   
Раздают:  1  
   
Загрузка...
 
Автор Сообщение

Galfimbul

avatar Galfimbul


Особо Тяжкие Преступления / Major Crimes
Год выпуска: 2016
Страна: США
Жанр: детектив
Продолжительность: 00:44:00
Перевод: Любительский (двухголосый закадровый) - (DreamRecords)
Русские субтитры: нет
Режиссёр: Michael M. Robin

В ролях: Мэри МакДоннел, Джордж Бейли, Тони Дэнесон, Майкал Пол Чен, Раймонд Круз

Описание: Продолжение сериала Ищейка. После увольнения Бренды Ли Джонсон руководство Отделом Ососбо Опасных преступлений полиции Лос-Анджелеса берет в свои руки капитан Рэйдор. Однако ей предстоит работать в команде, котроая заранее испытывает к ней антипатию, ведь антипатию к ней всегда испытывала шеф Джонсон.Доп. информация:Монтаж и сведение звука: Алексей Фокин
Автор рипа: Алексей Фокин
Роли озвучивали:

Владимир Чистохин
Полина Касаткина

Автор постера: Вячеслав Вернидуб
СэмплКачество: WEB-DLRip
Формат: AVI
Видео кодек: XviD
Аудио кодек: MP3
Видео: 720x400, 1295 Kbps, 23.976 fps, 0.188 bit/pixel
Аудио: MP3, 48 kHz, 2 ch, 192 kbpsПрисутствует реклама онлайн-кинотеатра. (Ролик в начале видео и короткая звуковая вставка в конце)
Format                      : AVI
Format/Info                 : Audio Video Interleave
File size                   : 453 MiB
Duration                    : 42 min 20 s
Overall bit rate            : 1 496 kb/s
Writing application         : VirtualDubModRus 1.5.10.2 (build 2542/release)
Writing library             : VirtualDubMod build 2542/release

Video
ID                          : 0
Format                      : MPEG-4 Visual
Format profile              : Advanced [email protected]
Format settings, BVOP       : 1
Format settings, QPel       : No
Format settings, GMC        : No warppoints
Format settings, Matrix     : Default (MPEG)
Codec ID                    : XVID
Codec ID/Hint               : XviD
Duration                    : 42 min 20 s
Bit rate                    : 1 295 kb/s
Width                       : 720 pixels
Height                      : 400 pixels
Display aspect ratio        : 16:9
Frame rate                  : 23.976 (24000/1001) FPS
Color space                 : YUV
Chroma subsampling          : 4:2:0
Bit depth                   : 8 bits
Scan type                   : Progressive
Compression mode            : Lossy
Bits/(Pixel*Frame)          : 0.188
Stream size                 : 392 MiB (87%)
Writing library             : XviD 73

Audio
ID                          : 1
Format                      : MPEG Audio
Format version              : Version 1
Format profile              : Layer 3
Mode                        : Joint stereo
Codec ID                    : 55
Codec ID/Hint               : MP3
Duration                    : 42 min 20 s
Bit rate mode               : Constant
Bit rate                    : 192 kb/s
Channel(s)                  : 2 channels
Sampling rate               : 48.0 kHz
Compression mode            : Lossy
Stream size                 : 58.1 MiB (13%)
Alignment                   : Aligned on interleaves
Interleave, duration        : 42  ms (1.00 video frame)
Interleave, preload duratio : 504  ms
Внимание! Раздача ведётся путём добавления новых серий; при каждом добавлении создётся новый торрент. Чтобы начать докачку новой серии, пользователям необходимо сделать следующее:
(1) остановить скачивание,
(2) удалить старый торрент у себя из клиента (старые серии удалять не надо),
(3) скачать новый торрент и запустить его у себя в клиенте вместо старого, при этом указать клиенту путь в старую папку куда и должно происходить скачивание новых серий.
Ваш клиент при этом должен произвести хеширование (проверку) старой папки (если не производит сам - помогите ему сделать это), и будет докачивать только те серии которых у вас ещё нет. Старые серии при этом не удаляются, а продолжают раздаваться!
Eсли вы уже удалили старые серии, то предотвратить повторную закачку старых серий можно, отжав галочку в соответсвующих местах при запуске нового торрента. По возможности, желательно не удалять старые серии как можно дольше чтобы релизёр не столько продолжал раздавать старые серии, а смог сконцентрироваться на новых.
[url=]Раздача WEB-DL 720p[/url] <img class="smile" src="//static.t-ru.org/smiles/icon_arrow.gif" alt=""> Добавлена 2 серия! <img class="smile" src="//static.t-ru.org/smiles/icon_smile.gif" alt=""> <img class="smile" src="//static.t-ru.org/smiles/icon_arrow2.gif" alt=""> Не забываем говорить "Спасибо!" <img class="smile" src="//static.t-ru.org/smiles/icon_smile.gif" alt="">

Трекер:  [ 12-Ноя-2017 18:18 ]

  

Скачать .torrent

Размер .torrent файла 18 KB


Размер: 906 MB
Хэш (hash) релиза: 5684415371cbdbe9a14235d91602d26efbd05ccb
Подписка на обновления:

Торренты, похожие на Особо Тяжкие Преступления Major Crimes скачать торрент

Форум Название Автор Размер S L Добавлен
Зарубежные сериалы ·· Особо Тяжкие Преступления / Major Crimes / Сезон: 5 / Серии: 1-2 из 23 (Michael M. Robin) [2016, США, детектив, WEB-DL 720p] DVO (DreamRecords) + Original Galfimbul 30339520652.83 GB 0 0 1510502089

18:54

12-Ноя-17

Еще никто не оставлял запись к записи скачать торрент Особо Тяжкие Преступления Major Crimes . Будь первым!

!Обратная связь