Better off Ted | Better Things | Beware the Batman

Скачать через торрент Виктория Victoria Фильм бесплатно в хорошем качестве torrent

Скачивайте на UnionPeer.org фильмы через торрент без регистрации. Новинки кино в хорошем качестве через торрент. На UnionPeer.org можно скачать через торрент фильмы 2014 и 2015 годов. Самые новые фильмы.

Скачать торрент Виктория Victoria бесплатно через .torrent фильм мультфильм сериал

Если у вас наблюдаются проблемы со скриншотами, переходом по ссылками, скачиванием торрентов - проблемы в блокировщике рекламы AdBlock. #хорошегоДня!


Статистика раздачи
Размер:  6.31 GB   |    Зарегистрирован:  11 дней   |    .torrent скачан:  12 раз   |   
Раздают:  1  
   
Загрузка...
 
Автор Сообщение

Galfimbul

avatar Galfimbul


Виктория / Victoria

Год выпуска: 2017
Страна: Великобритания
Жанр: драма, история, биография
Продолжительность: 00:45:00

Перевод: Профессиональный (многоголосый закадровый) Good People

Режиссёр: Том Вон, Оливер Блэкбёрн, Сандра Голдбахер

В ролях: Дженна Коулман, Даниэла Холц, Фердинанд Кингсли, Адриан Шиллер, Том Хьюз, Дэвид Оукс, Найджел Линдсэй

Описание: Виктория взошла на престол в период сильной экономической нестабильности и возрождения республиканизма, а умерла 64 года спустя во главе величайшей в мире империи, придав новое значение статусу монарха и став «бабушкой Европы». Первый сезон сериала повествует о ранних годах правления Виктории с момента её восшествия на престол в 1837 году: первых неуверенных шагах от капризного подростка, не до конца понимающего своих обязанностей, до брака с принцем Альбертом. Сериал представляет собой сагу о взаимосвязанных общественных кругах: сфере власти Букингемского дворца и Вестминстера, королевских домах Европы, а также скандалах, касающихся служебного персонала дворца. В центре всего этого находится новая королева — энергичная и страстная женщина, которая однажды станет бессмертным воплощением силы и стабильности



[b]Реклама
: Отсутствует
1. Дочь солдата (Soldier's daughter)
2. Зеленоглазое чудовище (The Green-eyed monster)
3. Переплетение нитей (Warp and Weft)
4. Грехи отца (The Sins of the Father)
5. Сердечное соглашение (Entente Cordiale)
6. Вера, надежда и любовь (Faith, Hope & Charity)
7. Король за океаном (King over the Water)
8. Роскошь совести (The Luxury of Consience)
General
Unique ID : 202864901386951096687461007020548850950 (0x989E5BDBEE4FC2FEB5760A2D2B228506)
Complete name : D:\торрент файлы\Victoria. Season 2 (HDTVRip l 720p l Good People)\Victoria.S02E01.720p.HDTV.x264-GOODPEOPLE.mkv
Format : Matroska
Format version : Version 2
File size : 858 MiB
Duration : 49mn 32s
Overall bit rate : 2 422 Kbps
Encoded date : UTC 2017-09-24 18:48:00
Writing application : mkvmerge v5.4.0 ('Piper') built on Mar 10 2012 13:34:39
Writing library : libebml v1.2.3 + libmatroska v1.3.0

Video
ID : 1
Format : AVC
Format/Info : Advanced Video Codec
Format profile : [email protected]
Format settings, CABAC : Yes
Format settings, ReFrames : 5 frames
Codec ID : V_MPEG4/ISO/AVC
Duration : 49mn 32s
Bit rate : 1 990 Kbps
Width : 1 280 pixels
Height : 720 pixels
Display aspect ratio : 16:9
Frame rate mode : Constant
Frame rate : 25.000 fps
Color space : YUV
Chroma subsampling : 4:2:0
Bit depth : 8 bits
Scan type : Progressive
Bits/(Pixel*Frame) : 0.086
Stream size : 705 MiB (82%)
Writing library : x264 core 152 r2851 ba24899
Encoding settings : cabac=1 / ref=5 / deblock=1:0:0 / analyse=0x3:0x113 / me=hex / subme=8 / psy=1 / psy_rd=1.00:0.00 / mixed_ref=1 / me_range=16 / chroma_me=1 / trellis=2 / 8x8dct=1 / cqm=0 / deadzone=21,11 / fast_pskip=1 / chroma_qp_offset=-2 / threads=18 / lookahead_threads=3 / sliced_threads=0 / nr=0 / decimate=1 / interlaced=0 / bluray_compat=0 / constrained_intra=0 / bframes=3 / b_pyramid=2 / b_adapt=1 / b_bias=0 / direct=3 / weightb=1 / open_gop=0 / weightp=2 / keyint=250 / keyint_min=25 / scenecut=40 / intra_refresh=0 / rc_lookahead=50 / rc=crf / mbtree=1 / crf=18.0 / qcomp=0.60 / qpmin=0 / qpmax=69 / qpstep=4 / ip_ratio=1.40 / aq=1:1.00
Language : English
Default : Yes
Forced : No

Audio #1
ID : 2
Format : AC-3
Format/Info : Audio Coding 3
Mode extension : CM (complete main)
Format settings, Endianness : Big
Codec ID : A_AC3
Duration : 49mn 32s
Bit rate mode : Constant
Bit rate : 192 Kbps
Channel(s) : 2 channels
Channel positions : Front: L R
Sampling rate : 48.0 KHz
Frame rate : 31.250 fps (1536 spf)
Compression mode : Lossy
Stream size : 68.0 MiB (8%)
Language : Russian
Default : Yes
Forced : No

Audio #2
ID : 3
Format : AC-3
Format/Info : Audio Coding 3
Mode extension : CM (complete main)
Format settings, Endianness : Big
Codec ID : A_AC3
Duration : 49mn 32s
Bit rate mode : Constant
Bit rate : 192 Kbps
Channel(s) : 6 channels
Channel(s)_Original : 2 channels
Channel positions : Front: L R
Sampling rate : 48.0 KHz
Frame rate : 31.250 fps (1536 spf)
Compression mode : Lossy
Stream size : 68.0 MiB (8%)
Language : English
Default : No
Forced : No


Трекер:  [ 12-Ноя-2017 15:18 ]

  

Скачать .torrent

Размер .torrent файла 17 KB


Размер: 6.31 GB
Хэш (hash) релиза: 216413f2542b52efd96fd3fe58bf132d35a40730
Подписка на обновления:

Торренты, похожие на Виктория Victoria скачать торрент

Форум Название Автор Размер S L Добавлен
Зарубежные сериалы ·· Виктория / Victoria / Сезон: 2 / Серии: 1-1 из 8 (Том Вон, Оливер Блэкбёрн, Сандра Голдбахер) [2017, Великобритания, драма, история, биография, HDTVRip] Original + Rus Sub (notabenoid (naruhinka)) Galfimbul 828525022790 MB 0 0 1504024038

19:27

29-Авг-17

Зарубежные сериалы ·· Виктория / Victoria / Сезон: 2 / Серии: 1-5 из 8 (Том Вон, Оливер Блэкберн, Сандра Голдбахер) [2017, Великобритания, Драма, WEB-DLRip] MVO (NewStudio) + Original Galfimbul 28270039042.63 GB 0 0 1506621949

21:05

28-Сен-17

Зарубежные сериалы ·· Виктория / Victoria / Сезон: 2 / Серии: 1-4 из 8 (Том Вон, Оливер Блэкбёрн, Сандра Голдбахер) [2017, Великобритания, Историческая драма, HDTVRip 720p] MVO (Good People) + Original Galfimbul 33608222493.13 GB 0 0 1506284684

23:24

24-Сен-17

Зарубежные сериалы ·· Виктория / Victoria / Сезон: 2 / Серии: 1-3 из 8 (Лиза Джеймс Ларссон и др. / Lisa James Larsson etc.) [2017, Великобритания, Историческая драма, биография, HDTV 720p] Original + Rus Sub (Maritushka / Заметки госпожи Коваррубиас) Galfimbul 23027997222.14 GB 0 0 1505543071

09:24

16-Сен-17

Зарубежные сериалы ·· Виктория / Victoria / Сезон: 1 / Серии: 1-2 из 8 (Том Вон, Оливер Блэкбёрн, Сандра Голдбахер) [2016, драма, история, биография, HDTVRip] Original + Rus Sub (notabenoid) Galfimbul 25405305522.37 GB 0 0 1473205597

02:46

7-Сен-16

Зарубежные сериалы ·· Виктория / Victoria / Сезон: 1 / Серии: 1-2 из 8 (Том Вон, Оливер Блэкбёрн, Сандра Голдбахер) [2016, драма, история, биография, HDTVRip] Original + Rus Sub (notabenoid) Galfimbul 18698698031.74 GB 0 0 1473020393

23:19

4-Сен-16

Зарубежные сериалы ·· Виктория / Victoria / Сезон: 1 / Серии: 1-2 из 8 (Том Вон, Сандра Голдбахер, Оливер Блэкбёрн) [2016, Великобритания, Историческая драма, биография, HDTVRip 720p] Original + Rus Sub (Maritushka) Galfimbul 18652717181.74 GB 0 0 1473013068

21:17

4-Сен-16

Зарубежные сериалы ·· Виктория / Victoria / Сезон: 1 / Серия: 1-2 из 8 (Том Вон, Оливер Блэкбёрн, Сандра Голдбахер) [2016, Историческая драма, HDTVRip 720p] MVO (Jaskier) + Original Galfimbul 19035919701.77 GB 0 0 1472849026

23:43

2-Сен-16

Зарубежные сериалы ·· Виктория / Victoria / Сезон: 1 / Серия: 1-2 из 8 (Том Вон, Оливер Блэкбёрн, Сандра Голдбахер) [2016, Историческая драма, HDTVRip] MVO (Jaskier) + Original Galfimbul 10831872001.01 GB 0 0 1472841229

21:33

2-Сен-16

Еще никто не оставлял запись к записи скачать торрент Виктория Victoria . Будь первым!

!Обратная связь