Chapter 633 | Chapter 632 | Chapter 631

Скачать через торрент Проклятая нация Damnation Фильм бесплатно в хорошем качестве torrent

Скачивайте на UnionPeer.org фильмы через торрент без регистрации. Новинки кино в хорошем качестве через торрент. На UnionPeer.org можно скачать через торрент фильмы 2014 и 2015 годов. Самые новые фильмы.

Скачать торрент Проклятая нация Damnation бесплатно через .torrent фильм мультфильм сериал

Если у вас наблюдаются проблемы со скриншотами, переходом по ссылками, скачиванием торрентов - проблемы в блокировщике рекламы AdBlock. #хорошегоДня!


Статистика раздачи
Размер:  1.11 GB   |    Зарегистрирован:  12 дней   |    .torrent скачан:  22 раза   |   
Раздают:  1  
   
Загрузка...
 
Автор Сообщение

Galfimbul

avatar Galfimbul


Проклятая нация | Damnation

Год выпуска: 2017
Страна: США
Жанр: драма, криминал, вестерн
Продолжительность: ~00:55:00

Перевод: Любительский (двухголосый закадровый) ViruseProject

Режиссёр: Адам Кэйн, Род Лури, Эва Сёрхёуг

В ролях: Кристофер Хейердал, Тич Грант, Киллиан Скотт, Логан Маршалл-Грин, Сара Джонс, Арнольд Пиннок, Дэн Донохью, Дэвид Нэйсом, Вики Ламберт, Роэн Мид и др.

Описание: Действие разворачивается в маленьком городке американского штата Айова в 1930-е, когда страну изнуряла Великая Депрессия. Туда практически одновременно прибывают молодой проповедник, призывающий бедноту выступить против богачей, и лихой штрейкбрехер, нанятый этими самыми богачами, чтобы помешать планам проповедника. Но никто в городе не догадывается, кто эти двое на самом деле...
От исполнительных продюсеров — Тони Тоуст ("Лонгмайр"), Джеймс Мэнголд ("Логан") и Гаймон Кеседи ("Игра престолов).

Ссылка на предыдущие и альтернативные раздачи

Качество: WEBRip 720p
Контейнер: MKV
Видео: 1280 x 720 (16:9), ~2500 Kbps, 23.976 fps, 8 bits
Аудио: 48 kHz, AC3 Dolby Digital, 2/0 (L,R) ch, ~192 kbps
Аудио 2: 48 kHz, AC3 Dolby Digital, 2/0 (L,R) ch, ~192 kbps
Субтитры: русские (ViruseProject)
Реклама: В аудио в начале и конце по 12 секунд.

[b]Внимание! Раздача ведётся путём добавления новых серий; при каждом добавлении создаётся новый торрент. Чтобы начать докачку новой серии, пользователям необходимо сделать следующее:
(1) остановить скачивание,
(2) удалить старый торрент у себя из клиента (старые серии удалять не надо),
(3) скачать новый торрент и запустить его у себя в клиенте вместо старого, при этом указать клиенту путь в старую папку куда и должно происходить скачивание новых серий.

Eсли вы уже удалили старые серии, то предотвратить повторную закачку старых серий можно, отжав галочку в соответствующих местах при запуске нового торрента. По возможности, желательно не удалять старые серии как можно дольше чтобы релизёр не столько продолжал раздавать старые серии, а смог сконцентрироваться на новых.
General
Unique ID : 185153509716881104470693549127357037087 (0x8B4B44D47B50AC779FA64FE4ADFDFA1F)
Complete name : E:\ОЗВУЧКА\777ЗАЛИВ777\Damnation.S01.ViruseProject\Damnation.S01.720p.ViruseProject\Damnation.S01E01.720p.ViruseProject.mkv
Format : Matroska
Format version : Version 4 / Version 2
File size : 1.11 GiB
Duration : 54 min 56 s
Overall bit rate : 2 893 kb/s
Encoded date : UTC 2017-11-11 17:00:11
Writing application : mkvmerge v8.3.0 ('Over the Horizon') 64bit
Writing library : libebml v1.3.1 + libmatroska v1.4.2

Video
ID : 1
Format : AVC
Format/Info : Advanced Video Codec
Format profile : [email protected]
Format settings : CABAC / 1 Ref Frames
Format settings, CABAC : Yes
Format settings, ReFrames : 1 frame
Format settings, GOP : M=1, N=48
Codec ID : V_MPEG4/ISO/AVC
Duration : 54 min 55 s
Bit rate : 2 500 kb/s
Width : 1 280 pixels
Height : 720 pixels
Display aspect ratio : 16:9
Frame rate mode : Constant
Frame rate : 23.976 (24000/1001) FPS
Color space : YUV
Chroma subsampling : 4:2:0
Bit depth : 8 bits
Scan type : Progressive
Bits/(Pixel*Frame) : 0.113
Stream size : 985 MiB (87%)
Writing library : x264 core 120
Encoding settings : cabac=1 / ref=1 / deblock=1:0:0 / analyse=0x1:0x111 / me=hex / subme=6 / psy=1 / psy_rd=1.00:0.00 / mixed_ref=0 / me_range=16 / chroma_me=0 / trellis=1 / 8x8dct=0 / cqm=0 / deadzone=21,11 / fast_pskip=1 / chroma_qp_offset=-2 / threads=8 / sliced_threads=0 / nr=0 / decimate=1 / interlaced=0 / bluray_compat=0 / constrained_intra=0 / bframes=0 / weightp=2 / keyint=48 / keyint_min=25 / scenecut=0 / intra_refresh=0 / rc=abr / mbtree=0 / bitrate=2500 / ratetol=1.0 / qcomp=0.60 / qpmin=10 / qpmax=51 / qpstep=4 / ip_ratio=1.40 / aq=1:1.00
Default : Yes
Forced : No

Audio #1
ID : 2
Format : AC-3
Format/Info : Audio Coding 3
Codec ID : A_AC3
Duration : 54 min 56 s
Bit rate mode : Constant
Bit rate : 192 kb/s
Channel(s) : 2 channels
Channel positions : Front: L R
Sampling rate : 48.0 kHz
Frame rate : 31.250 FPS (1536 SPF)
Bit depth : 16 bits
Compression mode : Lossy
Stream size : 75.4 MiB (7%)
Title : ViruseProject
Language : Russian
Service kind : Complete Main
Default : Yes
Forced : No

Audio #2
ID : 3
Format : AC-3
Format/Info : Audio Coding 3
Codec ID : A_AC3
Duration : 54 min 55 s
Bit rate mode : Constant
Bit rate : 192 kb/s
Channel(s) : 2 channels
Channel positions : Front: L R
Sampling rate : 48.0 kHz
Frame rate : 31.250 FPS (1536 SPF)
Bit depth : 16 bits
Compression mode : Lossy
Stream size : 75.4 MiB (7%)
Language : English
Service kind : Complete Main
Default : No
Forced : No

Text
ID : 4
Format : UTF-8
Codec ID : S_TEXT/UTF8
Codec ID/Info : UTF-8 Plain Text
Duration : 54 min 32 s
Bit rate : 89 b/s
Count of elements : 710
Stream size : 35.8 KiB (0%)
Title : ViruseProject
Language : Russian
Default : No
Forced : No


Трекер:  [ 12-Ноя-2017 09:24 ]

  

Скачать .torrent

Размер .torrent файла 11 KB


Размер: 1.11 GB
Хэш (hash) релиза: 8582423de6f12c8a0338e33b94f4a9aed224a293
Подписка на обновления:

Еще никто не оставлял запись к записи скачать торрент Проклятая нация Damnation . Будь первым!

!Обратная связь