Natchathira Kondattam- Sun Tv Ayudha Poojai... | Sirappu Pattimandram – Sun Tv Ayudha Poojai... | Spyder Movie Sirappu Kannottam – Sun Tv...

Скачать через торрент Проклятая нация Damnation Фильм бесплатно в хорошем качестве torrent

Скачивайте на UnionPeer.org фильмы через торрент без регистрации. Новинки кино в хорошем качестве через торрент. На UnionPeer.org можно скачать через торрент фильмы 2014 и 2015 годов. Самые новые фильмы.

Скачать торрент Проклятая нация Damnation бесплатно через .torrent фильм мультфильм сериал

Если у вас наблюдаются проблемы со скриншотами, переходом по ссылками, скачиванием торрентов - проблемы в блокировщике рекламы AdBlock. #хорошегоДня!


Статистика раздачи
Размер:  2.42 GB   |    Зарегистрирован:  12 дней   |    .torrent скачан:  15 раз   |   
Раздают:  1  
   
Загрузка...
 
Автор Сообщение

Galfimbul

avatar Galfimbul


Проклятая нация / Damnation
Год выпуска: 2017
Страна: США | USA
Жанр: драма, криминал, вестерн
Продолжительность: ~00:54:00Перевод#1: Профессиональный (многоголосый закадровый) | LostFilm
Перевод#2: Профессиональный (многоголосый закадровый) | NewStudio
Субтитры: нетРежиссер: Адам Кэйн, Род Лури, Эва СёрхёугВ ролях: Кристофер Хейердал, Тич Грант, Киллиан Скотт, Логан Маршалл-Грин, Сара Джонс, Арнольд Пиннок, Дэн Донохью, Дэвид Нэйсом, Вики Ламберт, Роэн Мид и др.Описание: Действие разворачивается в маленьком городке в Айове в 1930-е. Туда практически одновременно прибывают молодой пастор, призывающий бедноту выступить против богатеев, и лихой штрейкбрехер, нанятый этими самыми богачами, чтобы помешать планам пастора. Никто в городе не догадывается, что эти двое — родные братья.IMDB: 7.2/10 (0,248 votes)
КиноПоиск: 7.0/10 (0,045 голосов)РЕЛИЗ от sergiy_pspДобавлено озвучивание от LostFilm, NewStudio. Начало сезона!
Всем приятного просмотра! Работа со звуком: sergiy_psp. Нет Рекламы!
Источник: iTunes WEB-DL
Качество видео: WEB-DL 1080p
Формат: MKV
Кодек: H.264 @ AC3
Видео: 1920x1080 at 23.976 fps, MPEG-4 AVC, ~5200 kbps avg, 0.218 bit/pixel
Аудио Rus: 48 kHz, AC3, 2/0 (L,R) ch, ~384.00 kbps avg |Многоголосый закадровый, LostFilm|
Аудио Rus: 48 kHz, AC3, 3/2 (L,C,R,l,r) + LFE ch, ~384.00 kbps avg |Многоголосый закадровый, NewStudio|
Аудио Eng: 48 kHz, AC3, 3/2 (L,C,R,l,r) + LFE ch, ~384.00 kbps avg
Субтитры: нет
✘Семпл✘
01. - 07.11.2017 - Тело Сэма Райли / Sam Riley's Body
02. - 14.11.2017 - На какой ты стороне? / Which Side Are You On?
03. - 21.11.2017 - Один пенни / One Penny
04. - 28.11.2017 - Император мороженого / The Emperor of Ice Cream
05. - 05.12.2017 - Ден та потерянные души / Den of Lost Souls
06. - 12.12.2017 - День моды в Вайоминге / In Wyoming Fashion
07. - 19.12.2017 - Разные взгляды / A Different Species
08. - 26.11.2017 - Эпизод #1.08 / Episode #1.08
09. - 03.01.2018 - Эпизод #1.09 / Episode #1.09
Общее
Уникальный идентификатор                 : 204635470732251293754425413723611661933 (0x99F35BAAEA2CCAB8B41359E5A31B066D)
Полное имя                               : Damnation.S01E01.1080p.WEB-DL.2xRus.Eng.sergiy_psp.mkv
Формат                                   : Matroska
Версия формата                           : Version 4 / Version 2
Размер файла                             : 2,42 Гбайт
Продолжительность                        : 54 м. 40 с.
Общий поток                              : 6339 Кбит/сек
Дата кодирования                         : UTC 2017-11-11 17:44:42
Программа кодирования                    : mkvmerge v17.0.0 ('Be Ur Friend') 64-bit
Библиотека кодирования                   : libebml v1.3.5 + libmatroska v1.4.8

Видео
Идентификатор                            : 1
Формат                                   : AVC
Формат/Информация                        : Advanced Video Codec
Профиль формата                          : [email protected]
Настройки формата                        : CABAC / 4 Ref Frames
Параметр CABAC формата                   : Да
Параметр RefFrames формата               : 4 кадра
Идентификатор кодека                     : V_MPEG4/ISO/AVC
Продолжительность                        : 54 м. 39 с.
Битрейт                                  : 5185 Кбит/сек
Ширина                                   : 1920 пикселей
Высота                                   : 1080 пикселей
Соотношение сторон                       : 16:9
Режим частоты кадров                     : Постоянный
Частота кадров                           : 23,976 (23976/1000) кадра/сек
Цветовое пространство                    : YUV
Субдискретизация насыщенности            : 4:2:0
Битовая глубина                          : 8 бит
Тип развёртки                            : Прогрессивная
Бит/(Пиксели*Кадры)                      : 0.104
Размер потока                            : 1,98 Гбайт (82%)
Заголовок                                : Damnation.S01E01.1080p.WEB-DL.2xRus.Eng.sergiy_psp
Язык                                     : English
Default                                  : Да
Forced                                   : Нет
Цветовой диапазон                        : Limited
Основные цвета                           : BT.709
Характеристики трансфера                 : BT.709
Коэффициенты матрицы                     : BT.709

Аудио #1
Идентификатор                            : 2
Формат                                   : AC-3
Формат/Информация                        : Audio Coding 3
Параметр Endianness формата              : Big
Идентификатор кодека                     : A_AC3
Продолжительность                        : 54 м. 40 с.
Вид битрейта                             : Постоянный
Битрейт                                  : 384 Кбит/сек
Каналы                                   : 2 канала
Расположение каналов                     : Front: L R
Частота                                  : 48,0 КГц
Частота кадров                           : 31,250 кадров/сек (1536 SPF)
Битовая глубина                          : 16 бит
Метод сжатия                             : С потерями
Размер потока                            : 150 Мбайт (6%)
Заголовок                                : Lostfilm 2.0
Язык                                     : Russian
ServiceKind/String                       : Complete Main
Default                                  : Да
Forced                                   : Нет

Аудио #2
Идентификатор                            : 3
Формат                                   : AC-3
Формат/Информация                        : Audio Coding 3
Параметр Endianness формата              : Big
Идентификатор кодека                     : A_AC3
Продолжительность                        : 54 м. 40 с.
Вид битрейта                             : Постоянный
Битрейт                                  : 384 Кбит/сек
Каналы                                   : 6 каналов
Расположение каналов                     : Front: L C R, Side: L R, LFE
Частота                                  : 48,0 КГц
Частота кадров                           : 31,250 кадров/сек (1536 SPF)
Битовая глубина                          : 16 бит
Метод сжатия                             : С потерями
Размер потока                            : 150 Мбайт (6%)
Заголовок                                : Newstudio 5.1
Язык                                     : Russian
ServiceKind/String                       : Complete Main
Default                                  : Нет
Forced                                   : Нет

Аудио #3
Идентификатор                            : 4
Формат                                   : AC-3
Формат/Информация                        : Audio Coding 3
Параметр Endianness формата              : Big
Идентификатор кодека                     : A_AC3
Продолжительность                        : 54 м. 40 с.
Вид битрейта                             : Постоянный
Битрейт                                  : 384 Кбит/сек
Каналы                                   : 6 каналов
Расположение каналов                     : Front: L C R, Side: L R, LFE
Частота                                  : 48,0 КГц
Частота кадров                           : 31,250 кадров/сек (1536 SPF)
Битовая глубина                          : 16 бит
Метод сжатия                             : С потерями
Размер потока                            : 150 Мбайт (6%)
Заголовок                                : Original 5.1
Язык                                     : English
ServiceKind/String                       : Complete Main
Default                                  : Нет
Forced                                   : Нет
[b]✘Внимание✘
Внимание! Раздача ведётся путём добавления новых серий; при каждом добавлении создётся новый торрент. Чтобы начать докачку новой серии, пользователям необходимо сделать следующее:
(1) остановить скачивание,
(2) удалить старый торрент у себя из клиента (старые серии удалять не надо),
(3) скачать новый торрент и запустить его у себя в клиенте вместо старого, при этом указать клиенту путь в старую папку куда и должно происходить скачивание новых серий.Ваш клиент при этом должен произвести хеширование (проверку) старой папки (если не производит сам - помогите ему сделать это), и будет докачивать только те серии которых у вас ещё нет. Старые серии при этом не удаляются, а продолжают раздаваться!Eсли вы уже удалили старые серии, то предотвратить повторную закачку старых серий можно, отжав галочку в соответсвующих местах при запуске нового торрента.


Трекер:  [ 11-Ноя-2017 21:54 ]

  

Скачать .torrent

Размер .torrent файла 12 KB


Размер: 2.42 GB
Хэш (hash) релиза: 4043461ba423e7f12bd69b037094517cccd2f41d
Подписка на обновления:

Еще никто не оставлял запись к записи скачать торрент Проклятая нация Damnation . Будь первым!

!Обратная связь