Скачать через торрент Опасный человек Danger Man Фильм бесплатно в хорошем качестве torrent

Скачивайте на UnionPeer.org фильмы через торрент без регистрации. Новинки кино в хорошем качестве через торрент. На UnionPeer.org можно скачать через торрент фильмы 2014 и 2015 годов. Самые новые фильмы.

Скачать торрент Опасный человек Danger Man бесплатно через .torrent фильм мультфильм сериал

Если у вас наблюдаются проблемы со скриншотами, переходом по ссылками, скачиванием торрентов - проблемы в блокировщике рекламы AdBlock. #хорошегоДня!


Статистика раздачи
Размер:  36.33 GB   |    Зарегистрирован:  8 дней   |    .torrent скачан:  5 раз   |   
Раздают:  1  
   
Загрузка...
 
Автор Сообщение

Galfimbul

avatar Galfimbul


Опасный человек / Danger Man

Год выпуска: 1960
Страна: Великобритания
Жанр: триллер, криминал, детектив, приключения
Продолжительность: 00:26:00

Перевод: Любительский (одноголосый закадровый) Severnij

Режиссёр: Чарльз Френд, Питер Грэхэм Скотт, Майкл Труман

В ролях: Патрик МакГуэн, Ричард Уоттис, Лайонел Мартон, Майкл Риппер, Уоррен Митчелл, Рик Янг, Хэйзел Корт, Лиза Гастони, Дональд Плезенс, Максин Одли

Описание: Сериал рассказывает о специальном агенте особого подразделения Джоне Дрейке, который специализируется на безопасности страны и защищает ее от террористов-подрывников.

Доп. информация: Финансирование проекта Дмитрий Дубов
Перевод karlivanovich
озвучка Severnij
монтаж звука anvic
координатор проекта croMAG

Релиз

http://ru.wikipedia.org/wiki/%D0%9E%D0%BF%D0%B0%D1%81%D0%BD%D1%8B%D0%B9_%D1%87%D0%B5%D0%BB%D0%BE%D0%B2%D0%B5%D0%BA

Ссылка на предыдущие и альтернативные раздачи:

Сэмпл: http://yadi.sk/i/v9GZD3wy3PbtVN

Качество: DVDRip
Формат: AVI
Видео: MPG2 720x480 (4:3) 29.97fps bit rate 5 173 kb/s
Аудио: Dolby AC3 48000Hz stereo Русский
Аудио 2: Dolby AC3 48000Hz stereo English
Субтитры: Отсутствуют

Реклама:
Отсутствует
Опасный человек - Danger Man [S1]\Danger.Man.e01x34.The Deputy Coyannis Story.1961 (1).mkv
Format : Matroska
Format version : Version 4 / Version 2
File size : 963 MiB
Duration : 25 min 46 s
Overall bit rate mode : Variable
Overall bit rate : 5 220 kb/s
Encoded date : UTC 2017-11-05 19:11:02
Writing application : mkvmerge v7.1.0 ('Good Love') 32bit built on Jul 27 2014 12:59:18
Writing library : libebml v1.3.0 + libmatroska v1.4.1

Video
ID : 1
Format : MPEG Video
Format version : Version 2
Format profile : Main@Main
Format settings, BVOP : Yes
Format settings, Matrix : Custom
Format settings, GOP : M=3, N=12
Codec ID : V_MPEG2
Codec ID/Info : MPEG 1 or 2 Video
Duration : 25 min 46 s
Bit rate mode : Variable
Bit rate : 4 832 kb/s
Width : 720 pixels
Height : 480 pixels
Display aspect ratio : 4:3
Frame rate mode : Variable
Frame rate : 25.690 FPS
Original frame rate : 29.970 (30000/1001) FPS
Color space : YUV
Chroma subsampling : 4:2:0
Bit depth : 8 bits
Compression mode : Lossy
Bits/(Pixel*Frame) : 0.544
Time code of first frame : 00:59:59;10
Time code source : Group of pictures header
GOP, Open/Closed : Open
GOP, Open/Closed of first f : Closed
Stream size : 891 MiB (93%)
Language : English
Default : No
Forced : No

Audio #1
ID : 2
Format : AC-3
Format/Info : Audio Coding 3
Format settings, Endianness : Big
Codec ID : A_AC3
Duration : 25 min 46 s
Bit rate mode : Constant
Bit rate : 192 kb/s
Channel(s) : 2 channels
Channel positions : Front: L R
Sampling rate : 48.0 kHz
Frame rate : 31.250 FPS (1536 spf)
Bit depth : 16 bits
Compression mode : Lossy
Stream size : 35.4 MiB (4%)
Language : Russian
Service kind : Complete Main
Default : Yes
Forced : No

Audio #2
ID : 3
Format : AC-3
Format/Info : Audio Coding 3
Format settings, Endianness : Big
Codec ID : A_AC3
Duration : 25 min 46 s
Bit rate mode : Constant
Bit rate : 192 kb/s
Channel(s) : 2 channels
Channel positions : Front: L R
Sampling rate : 48.0 kHz
Frame rate : 31.250 FPS (1536 spf)
Bit depth : 16 bits
Compression mode : Lossy
Stream size : 35.4 MiB (4%)
Title : Stereo
Language : English
Service kind : Complete Main
Default : No
Forced : No

Menu
00:00:00.000 : en:Chapter 01
00:03:19.465 : en:Chapter 02
00:16:36.996 : en:Chapter 03
00:24:59.865 : en:Chapter 04
00:25:46.811 : en:Chapter 05


Трекер:  [ 11-Ноя-2017 15:48 ]

  

Скачать .torrent

Размер .torrent файла 185 KB


Размер: 36.33 GB
Хэш (hash) релиза: 1caa2829785f25a36118ad05fe9146fcf844a719
Подписка на обновления:

Еще никто не оставлял запись к записи скачать торрент Опасный человек Danger Man . Будь первым!

!Обратная связь