Скачать через торрент Мистер Робот Mr. Robot Фильм бесплатно в хорошем качестве torrent

Скачивайте на UnionPeer.org фильмы через торрент без регистрации. Новинки кино в хорошем качестве через торрент. На UnionPeer.org можно скачать через торрент фильмы 2014 и 2015 годов. Самые новые фильмы.

Скачать торрент Мистер Робот Mr. Robot бесплатно через .torrent фильм мультфильм сериал

Если у вас наблюдаются проблемы со скриншотами, переходом по ссылками, скачиванием торрентов - проблемы в блокировщике рекламы AdBlock. #хорошегоДня!


Статистика раздачи
Размер:  3.3 GB   |    Зарегистрирован:  1 день 14 часов   |    .torrent скачан:  26 раз   |   
Раздают:  1  
   
Загрузка...
 
Автор Сообщение

Galfimbul

avatar Galfimbul


Мистер РОБОТ
Mr. Robot
Год выпуска: 2017
Страна: США
Жанр: Детектив, драма, триллер
Продолжительность: ~00:50:00
Перевод: Профессиональный (многоголосый закадровый) Студия «Profix Media»

Режиссёр: Сэм Эсмейл
В ролях: Рами Малек, Кристиан Слэйтер, Карли Чаикин, Портия Даблдэй, Мартин Волстром, Стефани Корнелиу, Майкл Кристофер, Грэйс Гаммер, Майкл Гилл, Сунита Мани

Описание: Страдающий депрессией и пристрастием к морфину, Эллиот Олдерсон не различает, что реально, а что - нет, однако изо всех сил пытается спасти мир, единственным доступным ему способом - через компьютерный взлом.Доп. информация: Без рекламных ВидеоАудио вставок

Сэмпл

Качество: WEBRip
Формат: AVI
Видео: XviD, 720x400 (16:9), 23.976 fps, ~1500 kbps
Аудио Rus: MP3, 48 kHz, 2 ch, 128 kbps
Аудио Eng: MP3, 48 kHz, 2 ch, 128 kbps
Субтитры: отсутствуют
Реклама: отсутствует
Полное имя                               : Mr.Robot.S03.WEBRip.RusEng.ProfixMedia\Mr.Robot.S03E01.WEBRip.RusEng.ProfixMedia.L.avi
Формат                                   : AVI
Формат/Информация                        : Audio Video Interleave
Размер файла                             : 600 Мбайт
Продолжительность                        : 53 м. 24 с.
Общий поток                              : 1572 Кбит/сек
Программа кодирования                    : VirtualDubMod 1.5.10.3 (build 2550/release)
Библиотека кодирования                   : VirtualDubMod build 2550/release

Видео
Идентификатор                            : 0
Формат                                   : MPEG-4 Visual
Профиль формата                          : Advanced Simple@L5
Параметр BVOP формата                    : 1
Параметр QPel формата                    : Нет
Параметр GMC формата                     : Без точки перехода
Параметр матрицы формата                 : Default (H.263)
Идентификатор кодека                     : XVID
Идентификатор кодека/Подсказка           : XviD
Продолжительность                        : 53 м. 24 с.
Битрейт                                  : 1302 Кбит/сек
Ширина                                   : 720 пикселей
Высота                                   : 400 пикселей
Соотношение сторон                       : 16:9
Частота кадров                           : 23,976 (24000/1001) кадра/сек
Цветовое пространство                    : YUV
Субдискретизация насыщенности            : 4:2:0
Битовая глубина                          : 8 бит
Тип развёртки                            : Прогрессивная
Метод сжатия                             : С потерями
Бит/(Пиксели*Кадры)                      : 0.189
Размер потока                            : 497 Мбайт (83%)
Библиотека кодирования                   : XviD 1.2.1 (UTC 2008-12-04)

Аудио #1
Идентификатор                            : 1
Формат                                   : MPEG Audio
Версия формата                           : Version 1
Профиль формата                          : Layer 3
Режим                                    : Joint stereo
Расширение режима                        : MS Stereo
Идентификатор кодека                     : 55
Идентификатор кодека/Подсказка           : MP3
Продолжительность                        : 53 м. 24 с.
Вид битрейта                             : Постоянный
Битрейт                                  : 128 Кбит/сек
Каналы                                   : 2 канала
Частота                                  : 48,0 КГц
Метод сжатия                             : С потерями
Размер потока                            : 48,9 Мбайт (8%)
Выравнивание                             : Соединение по промежуткам
Продолжительность промежутка             : 42  мс. (1,00 видеокадр)
Время предзагрузки промежутка            : 504  мс.

Аудио #2
Идентификатор                            : 2
Формат                                   : MPEG Audio
Версия формата                           : Version 1
Профиль формата                          : Layer 3
Режим                                    : Joint stereo
Расширение режима                        : MS Stereo
Идентификатор кодека                     : 55
Идентификатор кодека/Подсказка           : MP3
Продолжительность                        : 53 м. 24 с.
Вид битрейта                             : Постоянный
Битрейт                                  : 128 Кбит/сек
Каналы                                   : 2 канала
Частота                                  : 48,0 КГц
Метод сжатия                             : С потерями
Размер потока                            : 48,9 Мбайт (8%)
Выравнивание                             : Соединение по промежуткам
Продолжительность промежутка             : 42  мс. (1,00 видеокадр)
Время предзагрузки промежутка            : 504  мс.
Внимание! Раздача ведётся путём добавления новых серий; при каждом добавлении создаётся новый торрент. Чтобы начать докачку новой серии, пользователям необходимо сделать следующее:
(1) остановить скачивание,
(2) удалить старый торрент у себя из клиента (старые серии удалять не надо),
(3) скачать новый торрент и запустить его у себя в клиенте вместо старого, при этом указать клиенту путь в старую папку куда и должно происходить скачивание новых серий.

Ваш клиент при этом должен произвести хеширование (проверку) старой папки (если не производит сам - помогите ему сделать это), и будет докачивать только те серии которых у вас ещё нет. Старые серии при этом не удаляются, а продолжают раздаваться!

Eсли вы уже удалили старые серии, то предотвратить повторную закачку старых серий можно, отжав галочку в соответствующих местах при запуске нового торрента. По возможности, желательно не удалять старые серии как можно дольше чтобы релизёр не столько продолжал раздавать старые серии, а смог сконцентрироваться на новых.


Трекер:  [ 18-Ноя-2017 05:03 ]

  

Скачать .torrent

Размер .torrent файла 17 KB


Размер: 3.3 GB
Хэш (hash) релиза: 906e2b8def016224c1e0e86c8f7130d0bf3dfcf5
Подписка на обновления:

bot

Раздача обновлена!
Перекачайте торрент-файл.

Хотите добавить комментарий к записи скачать торрент Мистер Робот Mr. Robot

!Обратная связь