Скачать через торрент Проклятая нация Damnation Фильм бесплатно в хорошем качестве torrent

Скачивайте на UnionPeer.org фильмы через торрент без регистрации. Новинки кино в хорошем качестве через торрент. На UnionPeer.org можно скачать через торрент фильмы 2014 и 2015 годов. Самые новые фильмы.

Скачать торрент Проклятая нация Damnation бесплатно через .torrent фильм мультфильм сериал

Если у вас наблюдаются проблемы со скриншотами, переходом по ссылками, скачиванием торрентов - проблемы в блокировщике рекламы AdBlock. #хорошегоДня!


Статистика раздачи
Размер:  932 MB   |    Зарегистрирован:  8 дней   |    .torrent скачан:  14 раз   |   
Раздают:  1  
   
Загрузка...
 
Автор Сообщение

Galfimbul

avatar Galfimbul


Проклятая нация / Damnation

Год выпуска: 2017
Страна: США
Жанр: драма, криминал, вестерн
Продолжительность: ~ 00:54:00

Перевод: Субтитры er45ty

Режиссёр: Адам Кэйн, Род Лури, Эва Сёрхёуг
В ролях: Кристофер Хейердал, Тич Грант, Киллиан Скотт, Логан Маршалл-Грин, Сара Джонс, Арнольд Пиннок, Дэн Донохью, Дэвид Нэйсом, Вики Ламберт, Роэн Мид

Описание: Действие разворачивается в маленьком городке в Айове в 1930-е. Туда практически одновременно прибывают молодой пастор, призывающий бедноту выступить против богатеев, и лихой штрейкбрехер, нанятый этими самыми богачами, чтобы помешать планам пастора.

Сэмпл

Качество: HDTV 720p
Контейнер: MKV
Видео: x264, 1280x640 (2:1), 23,976 fps, 2025 kbps
Аудио: AC3, 48 kHz, 6 ch, 384 kbps - Eng
Субтитры: softsub (SRT) русские, английские
Реклама: Отсутствует
Общее
Уникальный идентификатор : 189764270766359337765861660374848445725 (0x8EC344E6A54BB82E930919136D531D1D)
Полное имя : E:\Video\Damnation.S01\Damnation.S01E01.720p.HDTV.x264.mkv
Формат : Matroska
Версия формата : Version 4 / Version 2
Размер файла : 931 Мбайт
Продолжительность : 54 м. 0 с.
Общий поток : 2411 Кбит/сек
Дата кодирования : UTC 2017-11-10 21:30:45
Программа кодирования : mkvmerge v17.0.0 ('Be Ur Friend') 64-bit
Библиотека кодирования : libebml v1.3.5 + libmatroska v1.4.8

Видео
Идентификатор : 1
Формат : AVC
Формат/Информация : Advanced Video Codec
Профиль формата : High@L4.1
Настройки формата : CABAC / 5 Ref Frames
Параметр CABAC формата : Да
Параметр RefFrames формата : 5 кадров
Идентификатор кодека : V_MPEG4/ISO/AVC
Продолжительность : 54 м. 0 с.
Битрейт : 2025 Кбит/сек
Ширина : 1280 пикселей
Высота : 640 пикселей
Соотношение сторон : 2,000
Режим частоты кадров : Постоянный
Частота кадров : 23,976 (24000/1001) кадра/сек
Цветовое пространство : YUV
Субдискретизация насыщенности : 4:2:0
Битовая глубина : 8 бит
Тип развёртки : Прогрессивная
Бит/(Пиксели*Кадры) : 0.103
Размер потока : 782 Мбайт (84%)
Библиотека кодирования : x264 core 152 r2851 ba24899
Настройки программы : cabac=1 / ref=5 / deblock=1:0:0 / analyse=0x3:0x113 / me=hex / subme=8 / psy=1 / psy_rd=1.00:0.00 / mixed_ref=1 / me_range=16 / chroma_me=1 / trellis=2 / 8x8dct=1 / cqm=0 / deadzone=21,11 / fast_pskip=1 / chroma_qp_offset=-2 / threads=20 / lookahead_threads=3 / sliced_threads=0 / nr=0 / decimate=1 / interlaced=0 / bluray_compat=0 / constrained_intra=0 / bframes=3 / b_pyramid=2 / b_adapt=1 / b_bias=0 / direct=3 / weightb=1 / open_gop=0 / weightp=2 / keyint=250 / keyint_min=23 / scenecut=40 / intra_refresh=0 / rc_lookahead=50 / rc=crf / mbtree=1 / crf=18.0 / qcomp=0.60 / qpmin=0 / qpmax=69 / qpstep=4 / ip_ratio=1.40 / aq=1:1.00
Default : Да
Forced : Нет
Цветовой диапазон : Limited
Коэффициенты матрицы : BT.709

Аудио
Идентификатор : 2
Формат : AC-3
Формат/Информация : Audio Coding 3
Идентификатор кодека : A_AC3
Продолжительность : 54 м. 0 с.
Вид битрейта : Постоянный
Битрейт : 384 Кбит/сек
Каналы : 6 каналов
Расположение каналов : Front: L C R, Side: L R, LFE
Частота : 48,0 КГц
Частота кадров : 31,250 кадров/сек (1536 SPF)
Битовая глубина : 16 бит
Метод сжатия : С потерями
Размер потока : 148 Мбайт (16%)
ServiceKind/String : Complete Main
Default : Да
Forced : Нет

Текст
Идентификатор : 3
Формат : UTF-8
Идентификатор кодека : S_TEXT/UTF8
Идентификатор кодека/Информация : UTF-8 Plain Text
Продолжительность : 52 м. 50 с.
Битрейт : 57 бит/сек
ElementCount : 717
Размер потока : 22,2 Кбайт (0%)
Default : Да
Forced : Нет
Внимание! Раздача ведётся путём добавления новых серий; при каждом добавлении создаётся новый торрент. Чтобы начать докачку новой серии, пользователям необходимо сделать следующее:
(1) остановить скачивание,
(2) удалить старый торрент у себя из клиента (старые серии удалять не надо),
(3) скачать новый торрент и запустить его у себя в клиенте вместо старого, при этом указать клиенту путь в старую папку куда и должно происходить скачивание новых серий.

Ваш клиент при этом должен произвести хеширование (проверку) старой папки (если не производит сам - помогите ему сделать это), и будет докачивать только те серии которых у вас ещё нет. Старые серии при этом не удаляются, а продолжают раздаваться!

Eсли вы уже удалили старые серии, то предотвратить повторную закачку старых серий можно, отжав галочку в соответствующих местах при запуске нового торрента. По возможности, желательно не удалять старые серии как можно дольше чтобы релизёр не столько продолжал раздавать старые серии, а смог сконцентрироваться на новых.


Трекер:  [ 11-Ноя-2017 01:54 ]

  

Скачать .torrent

Размер .torrent файла 18 KB


Размер: 932 MB
Хэш (hash) релиза: 8ec54944b75264c40032157817f7d133aa5f6a81
Подписка на обновления:

Еще никто не оставлял запись к записи скачать торрент Проклятая нация Damnation . Будь первым!

!Обратная связь