Download | Download | Download

Скачать через торрент Прослушка The Wire Фильм бесплатно в хорошем качестве torrent

Скачивайте на UnionPeer.org фильмы через торрент без регистрации. Новинки кино в хорошем качестве через торрент. На UnionPeer.org можно скачать через торрент фильмы 2014 и 2015 годов. Самые новые фильмы.

Скачать торрент Прослушка The Wire бесплатно через .torrent фильм мультфильм сериал

Если у вас наблюдаются проблемы со скриншотами, переходом по ссылками, скачиванием торрентов - проблемы в блокировщике рекламы AdBlock. #хорошегоДня!


Статистика раздачи
Размер:  11.11 GB   |    Зарегистрирован:  13 дней   |    .torrent скачан:  1 раз   |   
Раздают:  1  
   
Загрузка...
 
Автор Сообщение

Galfimbul

avatar Galfimbul


Прослушка The Wire4 Сезон
Год выпуска: 2006
Страна: США | HBO
Жанр: криминальная драма
Продолжительность: 00:58:00Перевод: Авторский (одноголосый закадровый) Ю. Сербин
Режиссёры: Джо Чаппелль, Эрнест Р. Дикерсон.В ролях: Доминик Уэст, Джон Доумен, Фрэнки Фэйсон, Эдан Гиллиам, Дирдри Лавджой, Кларк Питерс, Лэнс Рэдик, Андре Ройо, Соня Сон, Джим Тру-Фрост, Роберт Уиздом, Сет Гиллиам, Доменик Ломбардоззи, Рег Э. Кэти, Майкл Кеннет Уильямс.Описание: Подразделение полицейских в Балтиморе пытается с помощью специальных средств и мероприятий по прослушиванию и скрытой видеосъемке довести до суда расследование преступлений организованных преступных групп, которые занимаются незаконным распространением наркотиков.Качество: BDRip1080P
Формат: MKV
Видео кодек: H.264
Аудио кодек: AC3, DTS
Видео: x264, 1920x1080 (16:9), 23.976 fps, ~9 175 kbps avg, ~0.19 bit/pixel
Аудио: 48 kHz, DD, 2.0 ch, 192 kbps avg |Юрий Сербин|
Аудио 2: 48 kHz, DTS, 5.1 ch, 1509 kbps avg |Оригинал|
<div class="q-wrap">
<div class="q-head"><b>Цитата:</b></div>
<div class="q">Смотрите 5 сезон в авторском переводе Юрия Сербина в новом 2018-ом году!</div>
</div>

<div class="sp-wrap">
<div class="sp-head folded">Список серий</div>
<div class="sp-body">12: That's Got His Own
13: Final Grades</div>
</div>
General
Unique ID : 236047285092572895275381814715976033680 (0xB1950DAFE3B19AFBB02A746E9190A590)
Complete name
Format : Matroska
Format version : Version 4 / Version 2
File size : 4.45 GiB
Duration : 58 min 32 s
Overall bit rate : 10.9 Mb/s
Encoded date : UTC 2017-11-10 17:00:51
Writing application : mkvmerge v17.0.0 ('Be Ur Friend') 64-bit
Writing library : libebml v1.3.5 + libmatroska v1.4.8

Video
ID : 1
Format : AVC
Format/Info : Advanced Video Codec
Format profile : [email protected]
Format settings : CABAC / 4 Ref Frames
Format settings, CABAC : Yes
Format settings, RefFrames : 4 frames
Codec ID : V_MPEG4/ISO/AVC
Duration : 58 min 32 s
Bit rate : 9 175 kb/s
Width : 1 920 pixels
Height : 1 080 pixels
Display aspect ratio : 16:9
Frame rate mode : Constant
Frame rate : 23.976 FPS
Color space : YUV
Chroma subsampling : 4:2:0
Bit depth : 8 bits
Scan type : Progressive
Bits/(Pixel*Frame) : 0.185
Stream size : 3.75 GiB (84%)
Writing library : x264 core 144 r2525 40bb568
Encoding settings : cabac=1 / ref=4 / deblock=1:0:0 / analyse=0x3:0x133 / me=umh / subme=7 / psy=1 / psy_rd=1.00:0.00 / mixed_ref=1 / me_range=16 / chroma_me=1 / trellis=1 / 8x8dct=1 / cqm=0 / deadzone=21,11 / fast_pskip=0 / chroma_qp_offset=-2 / threads=18 / lookahead_threads=3 / sliced_threads=0 / nr=0 / decimate=1 / interlaced=0 / bluray_compat=0 / constrained_intra=0 / bframes=3 / b_pyramid=2 / b_adapt=1 / b_bias=0 / direct=1 / weightb=1 / open_gop=0 / weightp=2 / keyint=250 / keyint_min=23 / scenecut=40 / intra_refresh=0 / rc_lookahead=40 / rc=2pass / mbtree=1 / bitrate=9175 / ratetol=1.0 / qcomp=0.60 / qpmin=0 / qpmax=69 / qpstep=4 / cplxblur=20.0 / qblur=0.5 / ip_ratio=1.40 / aq=1:1.00
Language : English
Default : Yes
Forced : No

Audio #1
ID : 2
Format : AC-3
Format/Info : Audio Coding 3
Format settings, Endianness : Big
Codec ID : A_AC3
Duration : 58 min 32 s
Bit rate mode : Constant
Bit rate : 192 kb/s
Channel(s) : 2 channels
Channel positions : Front: L R
Sampling rate : 48.0 kHz
Frame rate : 31.250 FPS (1536 SPF)
Bit depth : 16 bits
Compression mode : Lossy
Stream size : 80.4 MiB (2%)
Title : AVO Юрий Сербин
Language : Russian
Service kind : Complete Main
Default : Yes
Forced : No

Audio #2
ID : 3
Format : DTS
Format/Info : Digital Theater Systems
Mode : 16
Format settings, Endianness : Big
Codec ID : A_DTS
Duration : 58 min 32 s
Bit rate mode : Constant
Bit rate : 1 509 kb/s
Channel(s) : 6 channels
Channel positions : Front: L C R, Side: L R, LFE
Sampling rate : 48.0 kHz
Frame rate : 93.750 FPS (512 SPF)
Bit depth : 24 bits
Compression mode : Lossy
Stream size : 632 MiB (14%)
Title : Original
Language : English
Default : No
Forced : No

Menu
00:00:00.000 : en:00:00:00.000
00:04:36.526 : en:00:04:36.526
00:13:31.352 : en:00:13:31.352
00:19:34.340 : en:00:19:34.340
00:28:11.231 : en:00:28:11.231
00:34:08.964 : en:00:34:08.964
00:41:52.969 : en:00:41:52.969
00:50:18.224 : en:00:50:18.224
00:57:20.145 : en:00:57:20.145
Раздача ведётся путём добавления новых серий; при каждом добавлении создаётся новый торрент. Чтобы начать докачку новой серии, пользователям необходимо сделать следующее:
(1) остановить скачивание,
(2) удалить старый торрент у себя из клиента (старые серии удалять не надо),
(3) скачать новый торрент и запустить его у себя в клиенте вместо старого, при этом указать клиенту путь в старую папку куда и должно происходить скачивание новых серий.
Ваш клиент при этом должен произвести хеширование (проверку) старой папки (если не производит сам - помогите ему сделать это), и будет докачивать только те серии которых у вас ещё нет. Старые серии при этом не удаляются, а продолжают раздаваться!
Eсли вы уже удалили старые серии, то предотвратить повторную закачку старых серий можно, отжав галочку в соответствующих местах при запуске нового торрента. По возможности, желательно не удалять старые серии как можно дольше чтобы релизёр не столько продолжал раздавать старые серии, а смог сконцентрироваться на новых.
Добавлены 12 и 13 серия 10.11.2017.

Трекер:  [ 10-Ноя-2017 20:48 ]

  

Скачать .torrent

Размер .torrent файла 28 KB


Размер: 11.11 GB
Хэш (hash) релиза: b0d4af069f977579fc09172865a74f69a579a14c
Подписка на обновления:

Еще никто не оставлял запись к записи скачать торрент Прослушка The Wire . Будь первым!

!Обратная связь