Eric Lange | Gil Birmingham | Althea Sam

Скачать через торрент Последний человек на Земле The Last Man on Earth Фильм бесплатно в хорошем качестве torrent

Скачивайте на UnionPeer.org фильмы через торрент без регистрации. Новинки кино в хорошем качестве через торрент. На UnionPeer.org можно скачать через торрент фильмы 2014 и 2015 годов. Самые новые фильмы.

Скачать торрент Последний человек на Земле The Last Man on Earth бесплатно через .torrent фильм мультфильм сериал

Если у вас наблюдаются проблемы со скриншотами, переходом по ссылками, скачиванием торрентов - проблемы в блокировщике рекламы AdBlock. #хорошегоДня!


Статистика раздачи
Размер:  1.71 GB   |    Зарегистрирован:  2 дня 12 часов   |    .torrent скачан:  44 раза   |   
Раздают:  2  
   
Загрузка...
 
Автор Сообщение

Galfimbul

avatar Galfimbul


Последний человек на Земле | The Last Man on Earth
• Год выпуска: 2017
• Страна: США
• Жанр: Фантастика, комедия, драма
• Продолжительность: ~ 00:30:00

• Перевод: Профессиональный (двухголосый закадровый) | Jaskier

• Режиссёр: Фил Лорд, Кристофер Миллер

• В ролях: Уилл Форте, Кристен Шол, Александра Даддарио, Клеопатра Коулман, Дженьюэри Джонс, Мэл Родригез и др.

• Описание: Фил Миллер последний человек на Земле в 2022 году, который ищет по всем США любые признаки человеческой жизни после неизвестного события, уничтожившего всех людей на Земле, включая его семью и сотрудников банка, где он работал.

| |

• Качество: HDTVRip
• Формат: AVI
• Видео: XviD, ~ 1400 kbps, 720x400 (16:9), 23.976 fps
• Аудио 1: MP3, 48,0 КГц, 2 ch, 128 kbps - Rus
• Аудио 2: MP3, 48,0 КГц, 2 ch, 128 kbps - Eng
• Субтитры: отсутствуютРеклама: Присутствует звуковая (два раза в начале и конце по 10 сек.)
Переведено и озвучено студией JASKIER
Общее
Полное имя                               : E:\JASKiER\The Last Man on Earth. Season 4 (HDTVRip l 400p l Jaskier)\The.Last.Man.on.Earth.S04E01.HDTVRip.Rus.Eng.Jaskier.avi
Формат                                   : AVI
Формат/Информация                        : Audio Video Interleave
Размер файла                             : 250 Мбайт
Продолжительность                        : 21 м. 2 с.
Общий поток                              : 1662 Кбит/сек
Программа кодирования                    : VirtualDubMod 1.5.10.3 | www.virtualdub-fr.org || (build 2550/release)
Библиотека кодирования                   : VirtualDubMod build 2550/release

Видео
Идентификатор                            : 0
Формат                                   : MPEG-4 Visual
Профиль формата                          : Advanced [email protected]
Параметр BVOP формата                    : 1
Параметр QPel формата                    : Нет
Параметр GMC формата                     : Без точки перехода
Параметр матрицы формата                 : Выборочная
Идентификатор кодека                     : XVID
Идентификатор кодека/Подсказка           : XviD
Продолжительность                        : 21 м. 2 с.
Битрейт                                  : 1392 Кбит/сек
Ширина                                   : 720 пикселей
Высота                                   : 400 пикселей
Соотношение сторон                       : 16:9
Частота кадров                           : 23,976 (24000/1001) кадра/сек
Цветовое пространство                    : YUV
Субдискретизация насыщенности            : 4:2:0
Битовая глубина                          : 8 бит
Тип развёртки                            : Прогрессивная
Метод сжатия                             : С потерями
Бит/(Пиксели*Кадры)                      : 0.202
Размер потока                            : 209 Мбайт (84%)
Библиотека кодирования                   : XviD 73

Аудио #1
Идентификатор                            : 1
Формат                                   : MPEG Audio
Версия формата                           : Version 1
Профиль формата                          : Layer 3
Режим                                    : Joint stereo
Расширение режима                        : MS Stereo
Идентификатор кодека                     : 55
Идентификатор кодека/Подсказка           : MP3
Продолжительность                        : 21 м. 2 с.
Вид битрейта                             : Постоянный
Битрейт                                  : 128 Кбит/сек
Каналы                                   : 2 канала
Частота                                  : 48,0 КГц
Метод сжатия                             : С потерями
Размер потока                            : 19,3 Мбайт (8%)
Выравнивание                             : Соединение по промежуткам
Продолжительность промежутка             : 42  мс. (1,00 видеокадр)
Время предзагрузки промежутка            : 504  мс.

Аудио #2
Идентификатор                            : 2
Формат                                   : MPEG Audio
Версия формата                           : Version 1
Профиль формата                          : Layer 3
Режим                                    : Joint stereo
Расширение режима                        : MS Stereo
Идентификатор кодека                     : 55
Идентификатор кодека/Подсказка           : MP3
Продолжительность                        : 21 м. 2 с.
Вид битрейта                             : Постоянный
Битрейт                                  : 128 Кбит/сек
Каналы                                   : 2 канала
Частота                                  : 48,0 КГц
Метод сжатия                             : С потерями
Размер потока                            : 19,3 Мбайт (8%)
Выравнивание                             : Соединение по промежуткам
Продолжительность промежутка             : 42  мс. (1,00 видеокадр)
Время предзагрузки промежутка            : 504  мс.
Когда раздача ведётся путём добавления новых серий, при каждом добавлении создётся новый торрент. Чтобы начать докачку новой серии, пользователям необходимо сделать следующее:
(1) остановить скачивание,
(2) удалить старый торрент у себя из клиента (старые серии удалять не надо),
(3) скачать новый торрент и запустить его у себя в клиенте вместо старого, при этом указать клиенту путь в старую папку, куда и должно происходить скачивание новых серий.
Ваш клиент при этом должен произвести хеширование (проверку) старой папки (если не производит сам - помогите ему сделать это), и будет докачивать только те серии, которых у вас ещё нет. Старые серии при этом не удаляются, а продолжают раздаваться!
Eсли вы уже удалили старые серии, то предотвратить повторную закачку старых серий можно, отжав галочку в соответсвующих местах при запуске нового торрента. По возможности, желательно не удалять старые серии как можно дольше, чтобы релизёр не столько продолжал раздавать старые серии, а смог сконцентрироваться на новых.


Трекер:  [ 21-Ноя-2017 22:01 ]

  

Скачать .torrent

Размер .torrent файла 18 KB


Размер: 1.71 GB
Хэш (hash) релиза: ba89712d9af84bd4c609505a7b720a77ece48143
Подписка на обновления:

bot

Раздача обновлена!
Перекачайте торрент-файл.

bot

Раздача обновлена!
Перекачайте торрент-файл.

Хотите добавить комментарий к записи скачать торрент Последний человек на Земле The Last Man on Earth

!Обратная связь