Dollhouse | Dominion | Downton Abbey

Скачать через торрент Эмоджи фильм The Emoji Movie Фильм бесплатно в хорошем качестве torrent

Скачивайте на UnionPeer.org фильмы через торрент без регистрации. Новинки кино в хорошем качестве через торрент. На UnionPeer.org можно скачать через торрент фильмы 2014 и 2015 годов. Самые новые фильмы.

Скачать торрент Эмоджи фильм The Emoji Movie бесплатно через .torrent фильм мультфильм сериал

Если у вас наблюдаются проблемы со скриншотами, переходом по ссылками, скачиванием торрентов - проблемы в блокировщике рекламы AdBlock. #хорошегоДня!


Статистика раздачи
Размер:  4.03 GB   |    Зарегистрирован:  17 дней   |    .torrent скачан:  280 раз   |   
Раздают:  4  
   
Загрузка...
 
Автор Сообщение

Galfimbul

avatar Galfimbul


Эмоджи фильм / The Emoji Movie

Страна: США
Производство: Columbia Pictures, LStar Capital, Sony Pictures Animation
Год выпуска: 2017
Жанр: мультфильм, фантастика, комедия, приключения, семейный
Продолжительность: 01:26:21

Режиссер: Энтони Леондис
Авторы сценария: Энтони Леондис, Эрик Сигел, Майк Уайт

В ролях: ТиДжей Миллер, Джеймс Корден, Анна Фэрис, Майя Рудольф, Стивен Райт, Дженнифер Кулидж, Патрик Стюарт, Кристина Агилера

Описание: Знаете ли вы, что внутри каждого смартфона есть красочный городок Текстополис, в котором живут эмоджи..? И что они ужасно радуются, когда владелец телефона именно их выбирает для своего сообщения..? Каждый из эмоджи отвечает лишь за одну эмоцию, и только Джин может выражать несколько эмоций сразу. Он очень хочет стать таким же, как и его собратья, и для этого вместе со своими друзьями пускается в увлекательное путешествие по приложениям телефона в поисках программы, которая поможет ему измениться. Неожиданно герои узнают о грозной опасности, нависшей над городом. Смогут ли друзья спасти Текстополис и всех его обитателей..?



Перевод: Профессиональный (полное дублирование) | iTunes
Субтитры: английские
Качество: BDRip 720p
Формат: МКV
Видео кодек: AVC
Аудио кодек: АС3
Видео: 1280x536 (2.40:1), 23.976 fps, MPEG-4 AVC ~5 657 kbps avg
Аудио №1: 48 kHz, AC3 Dolby Digital, 3/2 (L,C,R,l,r) + LFE ch, ~384 kbps | RUS
Аудио №2: 48 kHz, AC3 Dolby Digital, 3/2 (L,C,R,l,r) + LFE ch, ~640 kbps | ENG
Формат субтитров: UTF-8 Plain Text

Бюджет: $50 000 000
Дата премьеры (мир): 28 июля 2017
Дата премьеры (РФ): 17 августа 2017, «WDSSPR»

</a>
General
Уникальный идентификатор : 216499738008727801744068188714509724416 (0xA2E05534E40D789A9EA273884E4AEB00)
Полное имя : The.Emoji.Movie.2017.D.BDRip.720p.mkv
Формат : Matroska
Версия формата : Version 2
Размер файла : 4,03 Гбайт
Продолжительность : 1 ч. 26 м.
Общий поток : 6682 Кбит/сек
Дата кодирования : UTC 2017-11-06 22:27:36
Программа кодирования : mkvmerge v7.8.0 ('River Man') 32bit built on Apr 3 2015 12:11:22
Библиотека кодирования : libebml v1.3.1 + libmatroska v1.4.2

Видео
Идентификатор : 1
Формат : AVC
Формат/Информация : Advanced Video Codec
Профиль формата : [email protected]
Настройки формата : CABAC / 12 Ref Frames
Параметр CABAC формата : Да
Параметр RefFrames формата : 12 кадров
Идентификатор кодека : V_MPEG4/ISO/AVC
Продолжительность : 1 ч. 26 м.
Битрейт : 5657 Кбит/сек
Ширина : 1280 пикселей
Высота : 536 пикселей
Соотношение сторон : 2,40:1
Режим частоты кадров : Постоянный
Частота кадров : 23,976 (24000/1001) кадра/сек
Цветовое пространство : YUV
Субдискретизация насыщенности : 4:2:0
Битовая глубина : 8 бит
Тип развёртки : Прогрессивная
Бит/(Пиксели*Кадры) : 0.344
Размер потока : 3,33 Гбайт (83%)
Библиотека кодирования : x264 core 142 r2431+42 c69a006 tMod [[email protected] X86]
Настройки программы : cabac=1 / ref=12 / deblock=1:-3:-3 / analyse=0x3:0x113 / me=umh / subme=10 / psy=1 / fade_compensate=0.00 / psy_rd=1.00:0.00 / mixed_ref=1 / me_range=48 / chroma_me=1 / trellis=2 / 8x8dct=1 / cqm=0 / deadzone=21,11 / fast_pskip=0 / chroma_qp_offset=-2 / threads=48 / lookahead_threads=4 / sliced_threads=0 / nr=0 / decimate=1 / interlaced=0 / bluray_compat=0 / constrained_intra=0 / fgo=0 / bframes=7 / b_pyramid=2 / b_adapt=2 / b_bias=0 / direct=1 / weightb=1 / open_gop=0 / weightp=2 / keyint=240 / keyint_min=23 / scenecut=40 / intra_refresh=0 / rc_lookahead=40 / rc=2pass / mbtree=1 / bitrate=5657 / ratetol=1.0 / qcomp=0.60 / qpmin=0:0:0 / qpmax=69:69:69 / qpstep=4 / cplxblur=20.0 / qblur=0.5 / vbv_maxrate=49000 / vbv_bufsize=49000 / nal_hrd=none / filler=0 / ip_ratio=1.40 / aq=3:0.90 / aq-sensitivity=10.00 / aq-factor=1.00:1.00:1.00 / aq2=0 / aq3=0
Язык : English
Default : Да
Forced : Нет
Цветовой диапазон : Limited
Основные цвета : BT.709
Характеристики трансфера : BT.709
Коэффициенты матрицы : BT.709

Аудио #1
Идентификатор : 2
Формат : AC-3
Формат/Информация : Audio Coding 3
Идентификатор кодека : A_AC3
Продолжительность : 1 ч. 26 м.
Вид битрейта : Постоянный
Битрейт : 384 Кбит/сек
Каналы : 6 каналов
Расположение каналов : Front: L C R, Side: L R, LFE
Частота : 48,0 КГц
Частота кадров : 31,250 кадров/сек (1536 SPF)
Битовая глубина : 16 бит
Метод сжатия : С потерями
Размер потока : 237 Мбайт (6%)
Заголовок : iTunes
Язык : Russian
Default : Да
Forced : Нет

Аудио #2
Идентификатор : 3
Формат : AC-3
Формат/Информация : Audio Coding 3
Идентификатор кодека : A_AC3
Продолжительность : 1 ч. 26 м.
Вид битрейта : Постоянный
Битрейт : 640 Кбит/сек
Каналы : 6 каналов
Расположение каналов : Front: L C R, Side: L R, LFE
Частота : 48,0 КГц
Частота кадров : 31,250 кадров/сек (1536 SPF)
Битовая глубина : 16 бит
Метод сжатия : С потерями
Размер потока : 395 Мбайт (10%)
Язык : English
Default : Нет
Forced : Нет

Текст
Идентификатор : 4
Формат : UTF-8
Идентификатор кодека : S_TEXT/UTF8
Идентификатор кодека/Информация : UTF-8 Plain Text
Язык : English
Default : Нет
Forced : Нет

Меню
00:00:00.000 : :(01)00:00:00:000
00:05:12.478 : :(02)00:05:12:478
00:11:38.531 : :(03)00:11:38:531
00:15:49.406 : :(04)00:15:49:406
00:22:24.051 : :(05)00:22:24:051
00:26:48.607 : :(06)00:26:48:607
00:32:11.137 : :(07)00:32:11:137
00:39:15.186 : :(08)00:39:15:186
00:44:16.695 : :(09)00:44:16:695
00:48:43.128 : :(10)00:48:43:128
00:53:07.392 : :(11)00:53:07:392
00:58:19.370 : :(12)00:58:19:370
01:02:35.752 : :(13)01:02:35:752
01:07:18.909 : :(14)01:07:18:909
01:11:54.893 : :(15)01:11:54:893
01:16:05.477 : :(16)01:16:05:477
Источник http://arutor.org

Трекер:  [ 07-Ноя-2017 07:30 ]

  

Скачать .torrent

Размер .torrent файла 20 KB


Размер: 4.03 GB
Хэш (hash) релиза: ffbb6f2386dfcae4a43e78d9fc3ea0db790d6c77
Подписка на обновления:

Торренты, похожие на Эмоджи фильм The Emoji Movie скачать торрент

Форум Название Автор Размер S L Добавлен
Мультфильмы до 2016 ·· Эмоджи фильм / The Emoji Movie (Энтони Леондис / Tony Leondis) [2017, США, Мультфильм, фантастика, комедия, приключения, HDRip] Dub Galfimbul 15268782081.42 GB 0 0 1510072628

19:37

7-Ноя-17

Мультфильмы 2016-2017 (Новинки мультфильмов) ·· Эмоджи фильм / The Emoji Movie (Энтони Леондис) [2017 г., мультфильм, фантастика, комедия, приключения, семейный, HDRip] iTunes Galfimbul 781998240746 MB 4 0 1510047634

12:40

7-Ноя-17

Мультфильмы 2016-2017 (Новинки мультфильмов) ·· Эмоджи фильм / The Emoji Movie (Энтони Леондис) [2017 г., мультфильм, фантастика, комедия, приключения, семейный, WEBRip 720p] DUB | Чистый звук Galfimbul 27357972712.55 GB 2 0 1507278653

11:30

6-Окт-17

Мультфильмы 2016-2017 (Новинки мультфильмов) ·· Эмоджи фильм / The Emoji Movie (Энтони Леондис) [2017 г., мультфильм, фантастика, комедия, приключения, семейный, WEBRip] DUB | Чистый звук Galfimbul 14680289281.37 GB 0 0 1507278651

11:30

6-Окт-17

Мультфильмы 2016-2017 (Новинки мультфильмов) ·· Эмоджи фильм / The Emoji Movie (Энтони Леондис) [2017 г., мультфильм, фантастика, комедия, приключения, семейный, CAMRip] Galfimbul 14680145921.37 GB 0 0 1503031839

07:50

18-Авг-17

Еще никто не оставлял запись к записи скачать торрент Эмоджи фильм The Emoji Movie . Будь первым!

!Обратная связь